Торрент файл
скачать торрент магнет ссылка Добавлен: 24 мар 2018, 22:19
Размер: 1.39 ГБ
Сидеров: 0
Личеров: 0
Статус: (salma3)
Автор

СообщениеДобавлено: 24 мар 2018, 22:19 

Не в сети
Супермодератор
Аватара пользователя
Дата регистрации:
15 фев 2012, 16:44
Возраст: 28
Спасибо: 7290 / 2147
Сообщения: 70686
Год выхода: 2017
Жанр: триллер, драма, мелодрама
Режиссер: Карлос Санчес, Джейсон Санчес

В ролях: Эван Рэйчел Вуд, Джулия Сара Стоун, Дэнис О Хэр, Максим Рой, Джо Кобден, Джонатан Шатцки, Ярдли Кэвэна, Тереза ​​Пиччиано, Лара Бинам, Ник Бейлли и другие
О фильме:
Уборщица знакомится с девочкой-подростком и убеждает её сбежать из дома и тайно жить у неё.



Страна: Канада, Micro Scope media
Продолжительность: 01:45:34
Перевод: Любительский (двухголосый закадровый) | HiWay Grope

Файл
Кодек: XviD
Качество: WEBRip
Видео: 720x336, 23.976 fps, ~1493 kbps, 0.26 bit/pixel
Аудио rus: AC3, 48 kHz, 6 ch, 384 Kbps

Семпл



General
Complete name : E:Allure.2018.WEBRip.HiWayGropeAllure.2018.WEBRip.HiWayGrope.avi
Format : AVI
Format/Info : Audio Video Interleave
File size : 1.39 GiB
Duration : 1h 45mn
Overall bit rate : 1 887 Kbps
Writing application : VirtualDubMod 1.5.10.3 (build 2550/release)
Writing library : VirtualDubMod build 2550/release

Video
ID : 0
Format : MPEG-4 Visual
Format profile : Advanced Simple@L5
Format settings, BVOP : 1
Format settings, QPel : No
Format settings, GMC : No warppoints
Format settings, Matrix : Default (MPEG)
Codec ID : XVID
Codec ID/Hint : XviD
Duration : 1h 45mn
Bit rate : 1 493 Kbps
Width : 720 pixels
Height : 336 pixels
Display aspect ratio : 2.143
Frame rate : 23.976 (23976/1000) fps
Color space : YUV
Chroma subsampling : 4:2:0
Bit depth : 8 bits
Scan type : Progressive
Compression mode : Lossy
Bits/(Pixel*Frame) : 0.257
Stream size : 1.10 GiB (79%)
Writing library : XviD 73

Audio
ID : 1
Format : AC-3
Format/Info : Audio Coding 3
Mode extension : CM (complete main)
Format settings, Endianness : Big
Codec ID : 2000
Duration : 1h 45mn
Bit rate mode : Constant
Bit rate : 384 Kbps
Channel(s) : 6 channels
Channel positions : Front: L C R, Side: L R, LFE
Sampling rate : 48.0 KHz
Frame rate : 31.250 fps (1536 spf)
Compression mode : Lossy
Stream size : 290 MiB (20%)
Alignment : Split accross interleaves
Interleave, duration : 42 ms (1.00 video frame)
Interleave, preload duration : 500 ms



Релиз от: HiWay Grope


_________________
Проголосуй за трекер Открытый торрент трекер - RUS-MEDIA.ORG

Проголосуй Открытый торрент трекер - RUS-MEDIA.ORG


Вернуться к началу
 Профиль Отправить личное сообщение  
 
   Похожие торренты   Автор   Торрент   Размер 
В этой теме нет новых непрочитанных сообщений. Очарование / Allure [триллер, драма, мелодрама, 2017] WEBRip 720p, Dvo

salma3

20 | 10

2.44 ГБ

В этой теме нет новых непрочитанных сообщений. Очарование 7 / Allure 7 (2016) WEB-DL

salma3

156 | 21

1.86 ГБ

В этой теме нет новых непрочитанных сообщений. Смертельное очарование / Смертельная привлекательность / Fatal Charm [Детектив, триллер, 1990] HDTVRip, Avo

salma3

1 | 0

1.4 ГБ

В этой теме нет новых непрочитанных сообщений. Всё, что угодно / Anything [Драма, мелодрама, 2017] WEBRip, Dvo

salma3

0 | 0

1.29 ГБ

В этой теме нет новых непрочитанных сообщений. Please, Cum On My Ass / Пожалуйста, Кончите на Мою Попку (Allure Films) [2017 г., Big Butt, Cumshots, Gonzo, DVDRip]

salma3

2 | 0

908.05 МБ

В этой теме нет новых непрочитанных сообщений. [BrazzersExxtra.com / Brazzers.com] Vivian Azure (The Allure of Azure / 09.08.2017) [2017 г., Big Tits,Blowjob (POV),Brunette,Gonzo,Handjob (POV),Oil,Reverse Cowgirl (POV),Tittyfuck (POV), 1080p]

salma3

38 | 13

2.48 ГБ

В этой теме нет новых непрочитанных сообщений. [BrazzersExxtra.com / Brazzers.com] Vivian Azure (The Allure of Azure / 09.08.2017) [2017 г., Big Tits,Blowjob (POV),Brunette,Gonzo,Handjob (POV),Oil,Reverse Cowgirl (POV),Tittyfuck (POV), 720p]

salma3

38 | 13

1.66 ГБ


Начать новую тему Ответить на тему  [ 1 сообщение ] 




Для Мосгорсуда, Роскомнадзора и рекламодателей:: mosgorsud-torrent[собачка]yandex.ru
cron