COVID-19 - Последняя информация о коронавирусе на сайте Минздрава




Торрент файл
скачать торрент магнет ссылка Добавлен: 23 мар 2018, 11:59
Размер: 1.89 ГБ
Сидеров: 0
Личеров: 0
Статус: (salma3)
Автор

СообщениеДобавлено: 23 мар 2018, 11:59 

Не в сети
Супермодератор
Аватара пользователя
Дата регистрации:
15 фев 2012, 16:44
Возраст: 31
Спасибо: 8278 / 2148
Сообщения: 96637
Год выхода: 1981
Жанр: Драма
Режиссер: Марко Феррери

В ролях: Бен Газзара, Орнелла Мути, Сьюзан Тиррелл, Таня Лоперт, Катя Бергер, Жан Поль Буше, Карло Монни, Элизабет Лонг, Левис Кьянелли, Кристина Форти

О фильме: Мошенники разных мастей, проститутки, отбросы американского «дна» — вот неиссякаемые источники, из которых черпает вдохновение Чарлз. Он привязывается к проститутке Кэсс, но этот странный роман завершается трагически.



Страна: Италия, Франция
Студия: 23 giugno Rome, Alpes International Paris, Ginis Films
Продолжительность: 01:36:29

Файл
Кодек: х264
Качество: DVDRip-AVC
Видео: MPEG-4 AVC, 650x568@924x568, 25 fps, 1962 Кбит/с
Аудио 1: Russian: 48 kHz, AC3, 2.0 ch, 192 kbps - MVO, ТРК "Петербург-Пятый канал"
Аудио 2: Russian: 48 kHz, AC3, 2.0 ch, 192 kbps - DVO, "Кармен Видео"
Аудио 3: Italian: 48 kHz, AC3, 2.0 ch, 192 kbps - Итальянский
Аудио 4: English: 48 kHz, AC3, 2.0 ch, 192 kbps - ENG
Субтитры: Русские, итальянские
Навигация по главам: Есть

x264 [info]: frame I:728 Avg QP:17.23 size: 73942
x264 [info]: frame P:30215 Avg QP:18.96 size: 28304
x264 [info]: frame B:113783 Avg QP:21.52 size: 4900
x264 [info]: consecutive B-frames: 1.0% 2.0% 8.5% 15.8% 24.5% 37.0% 7.0% 2.2% 1.1% 0.7% 0.1%

Общее
Уникальный идентификатор : 210054340952533910251846550066057740775 (0x9E06FE98CA6B86CFAF059BE734C081E7)
Полное имя : История обыкновенного безумия_1981-DVDRip-AVC_KORSAR.mkv
Формат : Matroska
Версия формата : Version 2
Размер файла : 1,89 Гбайт
Продолжительность : 1 ч. 36 м.
Общий поток : 2797 Кбит/сек
Дата кодирования : UTC 2018-02-28 18:50:26
Программа кодирования : mkvmerge v5.8.0 ('No Sleep / Pillow') built on Sep 2 2012 15:37:04
Библиотека кодирования : libebml v1.2.3 + libmatroska v1.3.0

Видео
Идентификатор : 1
Формат : AVC
Формат/Информация : Advanced Video Codec
Профиль формата : High@L4.1
Настройки формата : CABAC / 14 Ref Frames
Параметр CABAC формата : Да
Параметр RefFrames формата : 14 кадров
Идентификатор кодека : V_MPEG4/ISO/AVC
Продолжительность : 1 ч. 36 м.
Битрейт : 1974 Кбит/сек
Ширина : 650 пикселей
Высота : 568 пикселей
Соотношение сторон : 16:10
Соотношение сторон в оригинале : 16:10
Режим частоты кадров : Постоянный
Частота кадров : 25,000 кадров/сек
Цветовое пространство : YUV
Субдискретизация насыщенности : 4:2:0
Битовая глубина : 8 бит
Тип развёртки : Прогрессивная
Бит/(Пиксели*Кадры) : 0.214
Размер потока : 1,33 Гбайт (71%)
Библиотека кодирования : x264 core 148 r2744kMod b97ae06
Настройки программы : cabac=1 / ref=14 / deblock=1:-2:1 / analyse=0x3:0x133 / me=umh / subme=10 / psy=1 / fade_compensate=0.00 / psy_rd=1.05:0.10 / mixed_ref=1 / me_range=40 / chroma_me=1 / trellis=2 / 8x8dct=1 / cqm=0 / deadzone=21,11 / fast_pskip=1 / chroma_qp_offset=-3 / threads=12 / lookahead_threads=3 / sliced_threads=0 / nr=0 / decimate=1 / interlaced=0 / bluray_compat=0 / constrained_intra=0 / bframes=10 / b_pyramid=2 / b_adapt=2 / b_bias=0 / direct=1 / weightb=1 / open_gop=0 / weightp=2 / keyint=250 / keyint_min=25 / scenecut=40 / intra_refresh=0 / rc=crf / mbtree=0 / crf=17.8000 / qcomp=0.63 / qpmin=0 / qpmax=39 / qpstep=4 / ip_ratio=1.40 / pb_ratio=1.30 / aq=2:1.00
Язык : Italian
Default : Да
Forced : Нет
Цветовой диапазон : Limited
Основные цвета : BT.601 PAL
Характеристики трансфера : BT.470 System B, BT.470 System G
Коэффициенты матрицы : BT.470 System B, BT.470 System G

Аудио #1
Идентификатор : 2
Формат : AC-3
Формат/Информация : Audio Coding 3
Идентификатор кодека : A_AC3
Продолжительность : 1 ч. 36 м.
Вид битрейта : Постоянный
Битрейт : 192 Кбит/сек
Каналы : 2 канала
Расположение каналов : Front: L R
Частота : 48,0 КГц
Частота кадров : 31,250 кадров/сек (1536 SPF)
Битовая глубина : 16 бит
Метод сжатия : С потерями
Размер потока : 133 Мбайт (7%)
Заголовок : MVO | Пятый канал
Язык : Russian
По умолчанию : Да
Принудительно : Нет

Аудио #2
Идентификатор : 3
Формат : AC-3
Формат/Информация : Audio Coding 3
Идентификатор кодека : A_AC3
Продолжительность : 1 ч. 36 м.
Вид битрейта : Постоянный
Битрейт : 192 Кбит/сек
Каналы : 2 канала
Расположение каналов : Front: L R
Частота : 48,0 КГц
Частота кадров : 31,250 кадров/сек (1536 SPF)
Битовая глубина : 16 бит
Метод сжатия : С потерями
Размер потока : 133 Мбайт (7%)
Заголовок : DVO | Кармен Видео
Язык : Russian
По умолчанию : Нет
Принудительно : Нет

Аудио #3
Идентификатор : 4
Формат : AC-3
Формат/Информация : Audio Coding 3
Идентификатор кодека : A_AC3
Продолжительность : 1 ч. 36 м.
Вид битрейта : Постоянный
Битрейт : 192 Кбит/сек
Каналы : 2 канала
Расположение каналов : Front: L R
Частота : 48,0 КГц
Частота кадров : 31,250 кадров/сек (1536 SPF)
Битовая глубина : 16 бит
Метод сжатия : С потерями
Размер потока : 133 Мбайт (7%)
Заголовок : Original
Язык : Italian
По умолчанию : Нет
Принудительно : Нет

Аудио #4
Идентификатор : 5
Формат : AC-3
Формат/Информация : Audio Coding 3
Идентификатор кодека : A_AC3
Продолжительность : 1 ч. 36 м.
Вид битрейта : Постоянный
Битрейт : 192 Кбит/сек
Каналы : 2 канала
Расположение каналов : Front: L R
Частота : 48,0 КГц
Частота кадров : 31,250 кадров/сек (1536 SPF)
Битовая глубина : 16 бит
Метод сжатия : С потерями
Размер потока : 133 Мбайт (7%)
Заголовок : DUB
Язык : English
По умолчанию : Нет
Принудительно : Нет

Текст #1
Идентификатор : 6
Формат : UTF-8
Идентификатор кодека : S_TEXT/UTF8
Идентификатор кодека/Информация : UTF-8 Plain Text
Заголовок : Кармен Видео
Язык : Russian
По умолчанию : Нет
Принудительно : Нет

Текст #2
Идентификатор : 7
Формат : UTF-8
Идентификатор кодека : S_TEXT/UTF8
Идентификатор кодека/Информация : UTF-8 Plain Text
Язык : Italian
По умолчанию : Нет
Принудительно : Нет

Меню
00:00:00.000 : en:Chapter 1
00:04:49.920 : en:Chapter 2
00:08:33.120 : en:Chapter 3
00:11:49.920 : en:Chapter 4
00:15:07.200 : en:Chapter 5
00:19:23.040 : en:Chapter 6
00:23:55.200 : en:Chapter 7
00:28:43.200 : en:Chapter 8
00:30:56.160 : en:Chapter 9
00:34:52.800 : en:Chapter 10
00:39:44.160 : en:Chapter 11
00:42:53.760 : en:Chapter 12
00:47:14.880 : en:Chapter 13
00:52:33.120 : en:Chapter 14
00:54:46.080 : en:Chapter 15
01:00:14.880 : en:Chapter 16
01:03:12.000 : en:Chapter 17
01:06:04.800 : en:Chapter 18
01:12:13.920 : en:Chapter 19
01:18:43.680 : en:Chapter 20
01:22:38.880 : en:Chapter 21
01:24:52.800 : en:Chapter 22
01:28:35.040 : en:Chapter 23
01:35:14.880 : en:Chapter 24


Релиз от:


_________________
Проголосуй за трекер Открытый торрент трекер - RUS-MEDIA.ORG

Проголосуй Открытый торрент трекер - RUS-MEDIA.ORG


Скачать книги и аудио книги через торрент


Вернуться к началу
 Профиль Отправить личное сообщение  
 
   Похожие торренты   Автор   Торрент   Размер 
В этой теме нет новых непрочитанных сообщений. История с привидениями / Ghost Story [ужасы, триллер, драма, 1981] BDRip-AVC, Mvo

salma3

0 | 0

2.6 ГБ

В этой теме нет новых непрочитанных сообщений. Сотворивший красоток / Looker [Фантастика, триллер, драма, 1981] DVDRip-AVC, Mvo

salma3

14 | 5

1.67 ГБ

В этой теме нет новых непрочитанных сообщений. В пасти безумия / In The Mouth Of Madness [Ужасы, фэнтези, триллер, 1994] HDRip-AVC, Mvo

salma3

0 | 0

744.5 МБ

В этой теме нет новых непрочитанных сообщений. История с привидениями / Ghost Story [ужасы, триллер, драма, 1981] BDRip, Mvo

salma3

0 | 0

1.45 ГБ

В этой теме нет новых непрочитанных сообщений. Спартак / Spartacus [драма, история, 2004] DVDRip-AVC, Mvo

salma3

0 | 0

2.45 ГБ

В этой теме нет новых непрочитанных сообщений. Топор для новобрачной / Il rosso segno della follia [ужасы, триллер, 1970] BDRip-AVC, Dvo

salma3

0 | 1

1.45 ГБ

В этой теме нет новых непрочитанных сообщений. Подводная лодка / Das Boot [боевик, военный, история, 1981] BDRemux, Mvo [Director's Cut]

salma3

0 | 0

41.67 ГБ


Начать новую тему Ответить на тему  [ 1 сообщение ] 




Для Мосгорсуда, Роскомнадзора и рекламодателей:: rstracker[собака]yandex.ru
cron