Торрент файл
скачать торрент магнет ссылка Добавлен: 17 мар 2018, 18:11
Размер: 746.72 МБ
Сидеров: 0
Личеров: 0
Статус: (salma3)
Автор

СообщениеДобавлено: 17 мар 2018, 18:11 

В сети
Супермодератор
Аватара пользователя
Дата регистрации:
15 фев 2012, 16:44
Возраст: 28
Спасибо: 7224 / 2147
Сообщения: 67851
Год выхода: 2001
Жанр: Ужасы, триллер
Режиссер: Брэдфорд Мэй

В ролях: Эшли Джоунс, Чарли О'Коннелл, Брайан Керквуд, Дженнифер Лайонс, Элена Лайонс, Рашан Нолл, Кори Пэйдж, Мэриэнн Мюллерлайле, Джек Лил, Тим Томерсон, Патрик Берджин и другие.

О фильме :
Группа отвязных молодых людей получает приглашение на загородную вечеринку. Задумав заодно продать там партию наркотиков, они отправляются туда вместе со своими подругами, собираясь как следует повеселиться. Однако вскоре выясняется, что их заманила в свои сети странная Секта Теней, адепты которой любят устраивать охоту на невинных чужаков, чтобы затем пить их кровь, проведя жуткий дьявольский ритуал. Один за другим друзья становятся жертвами безумцев в черных-балахонах, но кто-то из них должен сделать невозможное, чтобы выжить и предупредить мир о том, что творится в чаще мрачных лесов американской глубинки...



Выпущено: США
Продолжительность: 01:26:27
Перевод: Профессиональный (многоголосый закадровый)

Файл
Формат: MKV
Качество: DVDRip-AVC
Видео: MPEG-4 AVC, 704x524, ~ 1130 Кбит/с
Аудио: AAC-HE, 2 ch, ~ 76 Кбит/с

Общее
Уникальный идентификатор : 157218150555701561311492311923417730704 (0x76471D49085F5887F2A173458E1CCE90)
Полное имя : D:MOVIESDevils Prey.2001.ExKinoRay.mkv
Формат : Matroska
Версия формата : Version 2
Размер файла : 747 Мбайт
Продолжительность : 1 ч. 26 м.
Общий поток : 1208 Кбит/сек
Дата кодирования : UTC 2018-03-17 12:16:55
Программа кодирования : mkvmerge v21.0.0 ('Tardigrades Will Inherit The Earth') 64-bit
Библиотека кодирования : libebml v1.3.5 + libmatroska v1.4.8

Видео
Идентификатор : 1
Формат : AVC
Формат/Информация : Advanced Video Codec
Профиль формата : High@L4.1
Параметр CABAC формата : Да
Параметр RefFrames формата : 10 кадров
Идентификатор кодека : V_MPEG4/ISO/AVC
Продолжительность : 1 ч. 26 м.
Битрейт : 1130 Кбит/сек
Ширина : 704 пикселя
Высота : 524 пикселя
Соотношение сторон : 4:3
Режим частоты кадров : Постоянный
Частота кадров : 25,000 кадров/сек
Цветовое пространство : YUV
Субдискретизация насыщенности : 4:2:0
Битовая глубина : 8 бит
Тип развёртки : Прогрессивная
Бит/(Пиксели*Кадры) : 0.123
Размер потока : 699 Мбайт (94%)
Библиотека кодирования : x264 core 155 r2901 7d0ff22
Настройки программы : cabac=1 / ref=10 / deblock=1:-3:-3 / analyse=0x3:0x133 / me=umh / subme=11 / psy=1 / psy_rd=1.00:0.12 / mixed_ref=1 / me_range=32 / chroma_me=1 / trellis=2 / 8x8dct=1 / cqm=0 / deadzone=21,11 / fast_pskip=0 / chroma_qp_offset=-3 / threads=6 / lookahead_threads=1 / sliced_threads=0 / nr=0 / decimate=0 / interlaced=0 / bluray_compat=0 / constrained_intra=0 / bframes=10 / b_pyramid=2 / b_adapt=2 / b_bias=0 / direct=3 / weightb=1 / open_gop=0 / weightp=2 / keyint=250 / keyint_min=24 / scenecut=40 / intra_refresh=0 / rc_lookahead=40 / rc=2pass / mbtree=1 / bitrate=1130 / ratetol=1.0 / qcomp=0.60 / qpmin=0 / qpmax=69 / qpstep=4 / cplxblur=20.0 / qblur=0.5 / vbv_maxrate=50000 / vbv_bufsize=62500 / nal_hrd=none / filler=0 / ip_ratio=1.40 / aq=3:1.00
Default : Да
Forced : Нет

Аудио
Идентификатор : 2
Формат : AAC
Формат/Информация : Advanced Audio Codec
Профиль формата : HE-AAC / LC
Идентификатор кодека : A_AAC
Продолжительность : 1 ч. 26 м.
Битрейт : 76,0 Кбит/сек
Каналы : 2 канала
Расположение каналов : Front: L R
Частота : 48,0 КГц / 24,0 КГц
Частота кадров : 23,438 кадра/сек (1024 SPF)
Метод сжатия : С потерями
Задержка видео : 31 мс.
Размер потока : 47,0 Мбайт (6%)
Default : Да
Forced : Нет




Релиз от:


_________________
Проголосуй за трекер Открытый торрент трекер - RUS-MEDIA.ORG

Проголосуй Открытый торрент трекер - RUS-MEDIA.ORG


Вернуться к началу
 Профиль Отправить личное сообщение  
 
   Похожие торренты   Автор   Торрент   Размер 
В этой теме нет новых непрочитанных сообщений. Пес дьявола: Гончая ада / Devil Dog: The Hound of Hell [ужасы, триллер, 1978] DVDRip, Avo

salma3

60 | 33

1.46 ГБ

В этой теме нет новых непрочитанных сообщений. Дочь дьявола / To the Devil a Daughter [ужасы, триллер, 1976] BDRip, Avo

salma3

0 | 0

1.45 ГБ

В этой теме нет новых непрочитанных сообщений. Шёпот дьявола / Devil's Whisper [Ужасы, триллер, драма, 2017] WEBRip, Dvo

salma3

39 | 4

1.17 ГБ

В этой теме нет новых непрочитанных сообщений. Шёпот дьявола / Devil's Whisper [Ужасы, триллер, драма, 2017] WEBRip 720p, Dvo

salma3

42 | 4

2.41 ГБ

В этой теме нет новых непрочитанных сообщений. Жертва / Prey [S02] (Ник Мерфи, Льюис Арнольд) [2015, криминал, драма, триллер, детектив, HDTVRip | ViruseProject]

Nickolas3434

62 | 6

1.78 ГБ

В этой теме нет новых непрочитанных сообщений. Жертва / Prey [02х01-02 из 03] (Ник Мерфи, Льюис Арнольд) [2015, триллер, драма, криминал, HDTVRip | SunshineStudio]

PriZraK

20 | 1

1019.74 МБ

В этой теме нет новых непрочитанных сообщений. Жертва / Prey [S02] (Ник Мерфи, Льюис Арнольд) [2015, криминал, драма, триллер, детектив, HDTVRip 720р | ViruseProject]

Nickolas3435

101 | 14

2.97 ГБ


Начать новую тему Ответить на тему  [ 1 сообщение ] 




Для Мосгорсуда, Роскомнадзора и рекламодателей:: mosgorsud-torrent[собачка]yandex.ru
cron