Торрент файл
скачать торрент магнет ссылка Добавлен: 16 мар 2018, 14:29
Размер: 4.36 ГБ
Сидеров: 0
Личеров: 1
Статус: (salma3)
Автор

СообщениеДобавлено: 16 мар 2018, 14:29 

В сети
Супермодератор
Аватара пользователя
Дата регистрации:
15 фев 2012, 16:44
Возраст: 29
Спасибо: 7333 / 2147
Сообщения: 73968
Страна: Польша
Жанр: Драма, исторический
Год выпуска: 1966
Продолжительность: 02.24.53
Перевод: Дублированный (Советский дубляж)
Режиссер: Ежи Кавалерович / Jerzy Kawalerowicz
В ролях: Ежи Зельник, Веслава Мазуркевич, Барбара Брыльска, Кристина Миколаевска,
Ева Кшижевска, Петр Павловский

Описание: На заре цивилизации, когда Древний Египет еще правил миром, люди любили и боролись за власть также, как и в наши дни.
Фараоны уже не так всесильны, как раньше, их казна пуста, а сокровищницы жрецов ломятся от золота.
Любовь и ненависть сжигают сердца юного фараона Рамзеса XIII, бесстрашного воина и пылкого влюбленного.
Любовь к двум женщинам не приносит ему счастья. Сын от еврейки Сары не может стать наследником трона,
жрица Кама не имеет права на плотскую любовь.
Главная его страсть — ненависть к касте всемогущих жрецов. Он хочет наступить на горло их власти.
Но смерть ждет тех, кто пойдет против них.
Верховный жрец Херхор готовит двойника Рамзеса для убийства и замены подлинного фараона…



Кодек: х264
Качество: DVDRip-AVC
Видео: MPEG-4 AVC, 700х456@996х456, 25 fps, 3600 Кбит/с
Аудио 1: Русский, АС3, 2h, 256 Кбит/с
Аудио 2: Польский, АС3, 6h, 448 Кбит/с
Субтитры: Нет
Главы: Есть


x264 [info]: frame I:988 Avg QP:18.25 size: 78299
x264 [info]: frame P:45647 Avg QP:20.63 size: 37792
x264 [info]: frame B:170688 Avg QP:22.07 size: 12353

Общее
Уникальный идентификатор : 185169045221114707155269725183157097918 (0x8B4E42CA1CD4F200BBB69E99687A55BE)
Полное имя : H:киноФараон 1966_DVDRip-AVC_KORSAR.mkv
Формат : Matroska
Версия формата : Version 2
Размер файла : 4,36 Гбайт
Продолжительность : 2 ч. 24 м.
Общий поток : 4305 Кбит/сек
Дата кодирования : UTC 2018-03-08 15:01:45
Программа кодирования : mkvmerge v5.8.0 ('No Sleep / Pillow') built on Sep 2 2012 15:37:04
Библиотека кодирования : libebml v1.2.3 + libmatroska v1.3.0

Видео
Идентификатор : 1
Формат : AVC
Формат/Информация : Advanced Video Codec
Профиль формата : High@L4.1
Настройки формата : CABAC / 15 Ref Frames
Параметр CABAC формата : Да
Параметр RefFrames формата : 15 кадров
Идентификатор кодека : V_MPEG4/ISO/AVC
Продолжительность : 2 ч. 24 м.
Битрейт : 3600 Кбит/сек
Ширина : 700 пикселей
Высота : 456 пикселей
Соотношение сторон : 2,2:1
Соотношение сторон в оригинале : 2,2:1
Режим частоты кадров : Постоянный
Частота кадров : 25,000 кадров/сек
Цветовое пространство : YUV
Субдискретизация насыщенности : 4:2:0
Битовая глубина : 8 бит
Тип развёртки : Прогрессивная
Бит/(Пиксели*Кадры) : 0.451
Размер потока : 3,56 Гбайт (82%)
Библиотека кодирования : x264 core 152 r2851kMod ba24899
Настройки программы : cabac=1 / ref=15 / deblock=1:-2:-2 / analyse=0x3:0x133 / me=umh / subme=11 / psy=1 / fade_compensate=0.00 / psy_rd=1.05:0.10 / mixed_ref=1 / me_range=48 / chroma_me=1 / trellis=2 / 8x8dct=1 / cqm=0 / deadzone=21,11 / fast_pskip=0 / chroma_qp_offset=-3 / threads=12 / lookahead_threads=3 / sliced_threads=0 / nr=0 / decimate=0 / interlaced=0 / bluray_compat=0 / constrained_intra=0 / bframes=10 / b_pyramid=2 / b_adapt=2 / b_bias=0 / direct=3 / weightb=1 / open_gop=0 / weightp=2 / keyint=250 / keyint_min=25 / scenecut=40 / intra_refresh=0 / rc_lookahead=40 / rc=2pass / mbtree=0 / bitrate=3600 / ratetol=1.0 / qcomp=0.60 / qpmin=0 / qpmax=39 / qpstep=4 / cplxblur=20.0 / qblur=0.5 / vbv_maxrate=50000 / vbv_bufsize=62500 / nal_hrd=none / filler=0 / ip_ratio=1.25 / pb_ratio=1.30 / aq=1:1.00
Язык : English
Default : Да
Forced : Нет
Цветовой диапазон : Limited
Основные цвета : BT.601 PAL
Характеристики трансфера : BT.470 System B, BT.470 System G
Коэффициенты матрицы : BT.470 System B, BT.470 System G

Аудио #1
Идентификатор : 2
Формат : AC-3
Формат/Информация : Audio Coding 3
Параметр Endianness формата : Big
Идентификатор кодека : A_AC3
Продолжительность : 2 ч. 24 м.
Вид битрейта : Постоянный
Битрейт : 256 Кбит/сек
Каналы : 2 канала
Расположение каналов : Front: L R
Частота : 48,0 КГц
Частота кадров : 31,250 кадров/сек (1536 SPF)
Битовая глубина : 16 бит
Метод сжатия : С потерями
Размер потока : 265 Мбайт (6%)
Заголовок : Дубляж
Язык : Russian
Default : Да
Forced : Нет

Аудио #2
Идентификатор : 3
Формат : AC-3
Формат/Информация : Audio Coding 3
Параметр Endianness формата : Big
Идентификатор кодека : A_AC3
Продолжительность : 2 ч. 24 м.
Вид битрейта : Постоянный
Битрейт : 448 Кбит/сек
Каналы : 6 каналов
Расположение каналов : Front: L C R, Side: L R, LFE
Частота : 48,0 КГц
Частота кадров : 31,250 кадров/сек (1536 SPF)
Битовая глубина : 16 бит
Метод сжатия : С потерями
Размер потока : 464 Мбайт (10%)
Язык : Polish
Default : Нет
Forced : Нет

Меню
00:00:00.000 : en:Chapter 1
00:09:22.560 : en:Chapter 2
00:12:53.280 : en:Chapter 3
00:21:45.120 : en:Chapter 4
00:32:45.600 : en:Chapter 5
00:42:28.800 : en:Chapter 6
00:49:59.520 : en:Chapter 7
00:58:30.720 : en:Chapter 8
01:07:53.280 : en:Chapter 9
01:15:14.080 : en:Chapter 10
01:21:23.680 : en:Chapter 11
01:31:20.320 : en:Chapter 12
01:40:25.600 : en:Chapter 13
01:45:40.800 : en:Chapter 14
01:53:15.840 : en:Chapter 15
02:01:11.040 : en:Chapter 16
02:06:27.840 : en:Chapter 17
02:16:08.640 : en:Chapter 18




_________________
Проголосуй за трекер Открытый торрент трекер - RUS-MEDIA.ORG

Проголосуй Открытый торрент трекер - RUS-MEDIA.ORG


Вернуться к началу
 Профиль Отправить личное сообщение  
 
   Похожие торренты   Автор   Торрент   Размер 
В этой теме нет новых непрочитанных сообщений. Фараон / Faraon [драма, 1966] BDRip-AVC, Dub

salma3

0 | 0

2.9 ГБ

В этой теме нет новых непрочитанных сообщений. Фараон / Faraon [драма, 1966] BDRip, Dub

salma3

0 | 0

2.18 ГБ

В этой теме нет новых непрочитанных сообщений. Фараон / Faraon [драма, 1966] BDRemux 1080p, Dub

salma3

0 | 0

39.37 ГБ

В этой теме нет новых непрочитанных сообщений. Ты теперь большой Мальчик / You're a Big Boy Now [комедия, драма, 1966] DVDRip-AVC, Dvo

salma3

27 | 5

1.87 ГБ

В этой теме нет новых непрочитанных сообщений. Романс для корнета / Romance pro kridlovku [Драма, 1966] DVDRip, Avo

salma3

13 | 14

1.37 ГБ

В этой теме нет новых непрочитанных сообщений. Редкая порода / The Rare Breed [Вестерн, драма, мелодрама , 1966] DVDRip-AVC, Dvo

salma3

27 | 3

1.46 ГБ

В этой теме нет новых непрочитанных сообщений. Большой куш для маленькой леди / A Big Hand for the Little Lady [Вестерн, драма, комедия, 1966] DVDRip, Mvo

salma3

0 | 0

1.5 ГБ


Начать новую тему Ответить на тему  [ 1 сообщение ] 




Для Мосгорсуда, Роскомнадзора и рекламодателей:: mosgorsud-torrent[собачка]yandex.ru
cron