Торрент файл
скачать торрент магнет ссылка Добавлен: 15 мар 2018, 17:48
Размер: 746.04 МБ
Сидеров: 38
Личеров: 60
Статус: (salma3)
Автор

СообщениеДобавлено: 15 мар 2018, 17:48 

Не в сети
Супермодератор
Аватара пользователя
Дата регистрации:
15 фев 2012, 16:44
Возраст: 29
Спасибо: 7377 / 2147
Сообщения: 75888
Год выхода: 2005
Жанр: Ужасы, фэнтези, триллер
Режиссер: Джереми Хафт

В ролях: Лес Карлсон, Кэрол Лазар, Джордж Чувало, Джой Бушел, Дженна Деван, Мэттью Мэрсден, Чэд Фауст, Джил Хакоэн, Клодетт Минк, Мелисса Элиас

О фильме :
17-летняя Тамара Райли – изгой в своем классе. Жестокие одноклассники считают ее чудной и странной, а учитель английского, в которого Тамара тайно влюблена, не обращает на нее ни малейшего внимания. В довершение всех своих несчастий Тамара пишет критическую статью о двух одноклассницах в школьной газете. Когда их месть случайно приводит к гибели Тамары, они закапывают ее тело и дают клятву друг другу никогда не говорить о происшедшем. Правда, никто не знает, что при жизни Тамара увлекалась "черной" магией и мистикой, и теперь, благодаря одному древнему заклятью, она восстанет из мертвых… Вскоре Тамара возвращается в мир живых в образе обворожительной и сексуальной красавицы. Ее жертвы беспомощны перед ее коварными прихотями, ее безвольная добыча готова подчиняться ей во всем. Тамара начинает свою кровавую месть, неся изысканную и жестокую смерть своим обидчикам…



Страна: США, Канада
Продолжительность: 01:34:00
Перевод: Профессиональный (полное дублирование)

Файл
Формат: MKV
Качество: DVDRip-AVC
Видео: MPEG-4 AVC, 720x392, ~ 1032 Кбит/с
Аудио: AAC-HE, 2 ch, ~ 76 Кбит/с
Субтитры: Нет

Общее
Уникальный идентификатор : 208898605242890529615372061407072715621 (0x9D28686D4D0F4E8F87D757BB570F8365)
Полное имя : D:MOVIESNesushaya_smerti.2005.ExKinoRay.mkv
Формат : Matroska
Версия формата : Version 4 / Version 2
Размер файла : 746 Мбайт
Продолжительность : 1 ч. 33 м.
Общий поток : 1110 Кбит/сек
Дата кодирования : UTC 2018-03-15 13:03:40
Программа кодирования : mkvmerge v15.0.0 ('Duel with the Devil') 64-bit
Библиотека кодирования : libebml v1.3.5 + libmatroska v1.4.5

Видео
Идентификатор : 1
Формат : AVC
Формат/Информация : Advanced Video Codec
Профиль формата : High@L4.1
Параметр CABAC формата : Да
Параметр RefFrames формата : 10 кадров
Идентификатор кодека : V_MPEG4/ISO/AVC
Продолжительность : 1 ч. 33 м.
Битрейт : 1032 Кбит/сек
Ширина : 720 пикселей
Высота : 392 пикселя
Соотношение сторон : 1,85:1
Режим частоты кадров : Постоянный
Частота кадров : 25,000 кадров/сек
Цветовое пространство : YUV
Субдискретизация насыщенности : 4:2:0
Битовая глубина : 8 бит
Тип развёртки : Прогрессивная
Бит/(Пиксели*Кадры) : 0.146
Размер потока : 694 Мбайт (93%)
Библиотека кодирования : x264 core 155 r2901 7d0ff22
Настройки программы : cabac=1 / ref=10 / deblock=1:-3:-2 / analyse=0x3:0x133 / me=umh / subme=11 / psy=1 / psy_rd=1.00:0.12 / mixed_ref=1 / me_range=32 / chroma_me=1 / trellis=2 / 8x8dct=1 / cqm=0 / deadzone=21,11 / fast_pskip=0 / chroma_qp_offset=-3 / threads=6 / lookahead_threads=1 / sliced_threads=0 / nr=0 / decimate=0 / interlaced=0 / bluray_compat=0 / constrained_intra=0 / bframes=10 / b_pyramid=2 / b_adapt=2 / b_bias=0 / direct=3 / weightb=1 / open_gop=0 / weightp=2 / keyint=250 / keyint_min=24 / scenecut=40 / intra_refresh=0 / rc_lookahead=40 / rc=2pass / mbtree=1 / bitrate=1032 / ratetol=1.0 / qcomp=0.60 / qpmin=0 / qpmax=69 / qpstep=4 / cplxblur=20.0 / qblur=0.5 / vbv_maxrate=50000 / vbv_bufsize=62500 / nal_hrd=none / filler=0 / ip_ratio=1.40 / aq=3:1.00
Default : Да
Forced : Нет

Аудио
Идентификатор : 2
Формат : AAC
Формат/Информация : Advanced Audio Codec
Профиль формата : HE-AAC / LC
Идентификатор кодека : A_AAC
Продолжительность : 1 ч. 33 м.
Битрейт : 76,0 Кбит/сек
Каналы : 2 канала
Расположение каналов : Front: L R
Частота : 48,0 КГц / 24,0 КГц
Частота кадров : 23,438 кадра/сек (1024 SPF)
Метод сжатия : С потерями
Задержка видео : 31 мс.
Размер потока : 51,1 Мбайт (7%)
Default : Да
Forced : Нет

Релиз от:


_________________
Проголосуй за трекер Открытый торрент трекер - RUS-MEDIA.ORG

Проголосуй Открытый торрент трекер - RUS-MEDIA.ORG


Вернуться к началу
 Профиль Отправить личное сообщение  
 
   Похожие торренты   Автор   Торрент   Размер 
В этой теме нет новых непрочитанных сообщений. Несущая смерть / Tamara [Ужасы, триллер, 2005] WEBRip 1080p, Dub

salma3

0 | 0

9.53 ГБ

В этой теме нет новых непрочитанных сообщений. Несущая смерть / Тамара / Tamara [Ужасы, триллер, 2005] WEBRip, Dub

salma3

0 | 0

1.47 ГБ

В этой теме нет новых непрочитанных сообщений. Смерть Яна / The Deaths of Ian Stone [Ужасы, триллер, 2007] DVDRip-AVC, Mvo

salma3

193 | 43

1.46 ГБ

В этой теме нет новых непрочитанных сообщений. Сверхъестественное / Supernatural [S01] [ужасы, фэнтези, триллер, 2005] HDRip-AVC, Dub [Рен-ТВ]

salma3

0 | 0

20.9 ГБ

В этой теме нет новых непрочитанных сообщений. Сверхъестественное / Supernatural [S01] [Ужасы, Фэнтези, Триллер, 2005] BDRip-HEVC 720p, Dub [Рен-ТВ]

salma3

12 | 7

7.12 ГБ

В этой теме нет новых непрочитанных сообщений. Оборотни / Cursed [Ужасы, триллер, фэнтези, комедия, 2005] BDRemux 1080i, Dub+Avo

salma3

19 | 10

24.23 ГБ

В этой теме нет новых непрочитанных сообщений. Сверхъестественное / Supernatural [S01-13] [Ужасы, фэнтези, триллер, 2005-2018] WEB-DLRip, Dub+Mvo [Рен-ТВ, LostFilm]

salma3

0 | 1

121.06 ГБ


Начать новую тему Ответить на тему  [ 1 сообщение ] 




Для Мосгорсуда, Роскомнадзора и рекламодателей:: mosgorsud-torrent[собачка]yandex.ru
cron