Торрент файл
скачать торрент магнет ссылка Добавлен: 15 мар 2018, 12:47
Размер: 2.57 ГБ
Сидеров: 0
Личеров: 0
Статус: (salma3)
Автор

СообщениеДобавлено: 15 мар 2018, 12:47 

Не в сети
Супермодератор
Аватара пользователя
Дата регистрации:
15 фев 2012, 16:44
Возраст: 29
Спасибо: 7332 / 2147
Сообщения: 73912
Страна: Франция, Великобритания, Канада
Жанр: боевик, триллер, криминал
Год выпуска: 2002
Продолжительность: 01:20:46
Перевод: Профессиональный (дублированный)
Режиссер: Жерар Пирес / Gérard Pirès
В ролях: Стивен Дорфф, Наташа Хенстридж, Брюс Пэйн, Стивен Беркофф, Кле Беннетт, Стивен МакКарти, Карен Клише, Андреас Апергис, Том МакКэмус, Ален Голем

Описание: Нет такого вида спорта, который был бы недоступен Слиму, Отису, Фрэнку и Алекс. Но им милее то, что щекочет нервы и стимулирует выброс адреналина. Прыгнуть с моста, упасть в море, сидя в грузовике — нет проблем! А уж про роликовый слалом по запруженным машинам и говорить нечего.
Только просто рисковать жизнью парням не интересно. И все это они делают, предварительно обчистив очередной банк. В конце концов, лидер команды Слим, принимает решение о том, что пора завязывать. Он понимает, что последняя операция будет очень не простая, вся полиция города будет у них на хвосте, и это еще не все…



Кодек: х264
Качество: DVDRip-AVC
Видео: MPEG-4 AVC, 718х432@1022x432, 25 fps, 3650 Кбит/с
Аудио: Русский, 48 hz, АС3, 6h, 448 Кбит/с
Аудио: Английский, 48 hz, АС3, 6h, 448 Кбит/с
Субтитры: русские
Главы: Есть


x264 [info]: frame I:751 Avg QP:17.68 size: 72562
x264 [info]: frame P:29590 Avg QP:20.31 size: 35605
x264 [info]: frame B:90817 Avg QP:22.00 size: 12140

Общее
Уникальный идентификатор : 210471215987003630131811039693523350516 (0x9E57481F76AE4107ABD6230B801F73F4)
Полное имя : H:киноНеудержимые 2002_DVDRip-AVC_KORSAR.mkv
Формат : Matroska
Версия формата : Version 2
Размер файла : 2,57 Гбайт
Продолжительность : 1 ч. 20 м.
Общий поток : 4547 Кбит/сек
Название фильма : Неудержимые / Riders_2002
Дата кодирования : UTC 2018-02-19 20:31:30
Программа кодирования : mkvmerge v5.8.0 ('No Sleep / Pillow') built on Sep 2 2012 15:37:04
Библиотека кодирования : libebml v1.2.3 + libmatroska v1.3.0

Видео
Идентификатор : 1
Формат : AVC
Формат/Информация : Advanced Video Codec
Профиль формата : High@L4.1
Настройки формата : CABAC / 16 Ref Frames
Параметр CABAC формата : Да
Параметр RefFrames формата : 16 кадров
Идентификатор кодека : V_MPEG4/ISO/AVC
Продолжительность : 1 ч. 20 м.
Битрейт : 3650 Кбит/сек
Ширина : 718 пикселей
Высота : 432 пикселя
Соотношение сторон : 2,35:1
Соотношение сторон в оригинале : 2,35:1
Режим частоты кадров : Постоянный
Частота кадров : 25,000 кадров/сек
Цветовое пространство : YUV
Субдискретизация насыщенности : 4:2:0
Битовая глубина : 8 бит
Тип развёртки : Прогрессивная
Бит/(Пиксели*Кадры) : 0.471
Размер потока : 2,01 Гбайт (78%)
Библиотека кодирования : x264 core 152 r2851kMod ba24899
Настройки программы : cabac=1 / ref=16 / deblock=1:-2:-1 / analyse=0x3:0x133 / me=umh / subme=11 / psy=1 / fade_compensate=0.00 / psy_rd=1.05:0.10 / mixed_ref=1 / me_range=48 / chroma_me=1 / trellis=2 / 8x8dct=1 / cqm=0 / deadzone=21,11 / fast_pskip=0 / chroma_qp_offset=-3 / threads=12 / lookahead_threads=3 / sliced_threads=0 / nr=0 / decimate=0 / interlaced=0 / bluray_compat=0 / constrained_intra=0 / bframes=10 / b_pyramid=2 / b_adapt=2 / b_bias=0 / direct=3 / weightb=1 / open_gop=0 / weightp=2 / keyint=250 / keyint_min=25 / scenecut=40 / intra_refresh=0 / rc_lookahead=40 / rc=2pass / mbtree=0 / bitrate=3650 / ratetol=1.0 / qcomp=0.60 / qpmin=0 / qpmax=39 / qpstep=4 / cplxblur=20.0 / qblur=0.5 / vbv_maxrate=50000 / vbv_bufsize=62500 / nal_hrd=none / filler=0 / ip_ratio=1.25 / pb_ratio=1.30 / aq=1:1.00
Язык : English
Default : Да
Forced : Нет
Цветовой диапазон : Limited
Основные цвета : BT.601 PAL
Характеристики трансфера : BT.470 System B, BT.470 System G
Коэффициенты матрицы : BT.470 System B, BT.470 System G

Аудио #1
Идентификатор : 2
Формат : AC-3
Формат/Информация : Audio Coding 3
Параметр Endianness формата : Big
Идентификатор кодека : A_AC3
Продолжительность : 1 ч. 20 м.
Вид битрейта : Постоянный
Битрейт : 448 Кбит/сек
Каналы : 6 каналов
Расположение каналов : Front: L C R, Side: L R, LFE
Частота : 48,0 КГц
Частота кадров : 31,250 кадров/сек (1536 SPF)
Битовая глубина : 16 бит
Метод сжатия : С потерями
Размер потока : 259 Мбайт (10%)
Заголовок : Дубляж
Язык : Russian
Default : Нет
Forced : Нет

Аудио #2
Идентификатор : 3
Формат : AC-3
Формат/Информация : Audio Coding 3
Параметр Endianness формата : Big
Идентификатор кодека : A_AC3
Продолжительность : 1 ч. 20 м.
Вид битрейта : Постоянный
Битрейт : 448 Кбит/сек
Каналы : 6 каналов
Расположение каналов : Front: L C R, Side: L R, LFE
Частота : 48,0 КГц
Частота кадров : 31,250 кадров/сек (1536 SPF)
Битовая глубина : 16 бит
Метод сжатия : С потерями
Размер потока : 259 Мбайт (10%)
Язык : English
Default : Да
Forced : Нет

Текст
Идентификатор : 4
Формат : UTF-8
Идентификатор кодека : S_TEXT/UTF8
Идентификатор кодека/Информация : UTF-8 Plain Text
Заголовок : Русские
Язык : Russian
Default : Нет
Forced : Нет

Меню
00:00:00.000 : en:Chapter 1
00:05:33.750 : en:Chapter 2
00:12:20.740 : en:Chapter 3
00:16:58.017 : en:Chapter 4
00:29:58.797 : en:Chapter 5
00:34:10.047 : en:Chapter 6
00:43:30.608 : en:Chapter 7
00:53:53.230 : en:Chapter 8
00:57:10.427 : en:Chapter 9
01:04:03.840 : en:Chapter 10
01:09:34.587 : en:Chapter 11
01:20:42.629 : en:Chapter 12




_________________
Проголосуй за трекер Открытый торрент трекер - RUS-MEDIA.ORG

Проголосуй Открытый торрент трекер - RUS-MEDIA.ORG


Вернуться к началу
 Профиль Отправить личное сообщение  
 
   Похожие торренты   Автор   Торрент   Размер 
В этой теме нет новых непрочитанных сообщений. Виртуоз / The Piano Player [боевик, триллер, драма, криминал, 2002] DVDRip, Mvo

salma3

134 | 3

1.36 ГБ

В этой теме нет новых непрочитанных сообщений. Неудержимые 3 / The Expendables 3 [Боевик, триллер, приключения, 2014] BDRip 720p, Dub

salma3

3 | 7

4.15 ГБ

В этой теме нет новых непрочитанных сообщений. Неудержимые / The Expendables [боевик, триллер, приключения, 2010] HDRip-AVC, Dub [Open Matte]

salma3

0 | 0

1.79 ГБ

В этой теме нет новых непрочитанных сообщений. Неудержимые / The Expendables [боевик, триллер, приключения, 2010] BDRip 1080p, Dub [Open Matte]

salma3

1 | 19

10.11 ГБ

В этой теме нет новых непрочитанных сообщений. Неудержимые 3 / The Expendables 3 [боевик, триллер, приключения, 2014] BDRip, Avo [Гаврилов] [Расширенная версия]

salma3

48 | 10

1.46 ГБ

В этой теме нет новых непрочитанных сообщений. Неудержимые 3 / The Expendables 3 [боевик, триллер, приключения, 2014] UHD BDRemux 2160p, Dub [4K] [Лицензия] [Театральная версия]

salma3

18 | 9

57.99 ГБ

В этой теме нет новых непрочитанных сообщений. Ни жив, ни мертв / Half Past Dead [боевик, триллер, криминал, 2002] BDRip, Dub

salma3

111 | 33

1.46 ГБ


Начать новую тему Ответить на тему  [ 1 сообщение ] 




Для Мосгорсуда, Роскомнадзора и рекламодателей:: mosgorsud-torrent[собачка]yandex.ru
cron