Торрент файл
скачать торрент магнет ссылка Добавлен: 13 мар 2018, 22:24
Размер: 1.37 ГБ
Сидеров: 0
Личеров: 1
Статус: (salma3)
Автор

СообщениеДобавлено: 13 мар 2018, 22:24 

Не в сети
Супермодератор
Аватара пользователя
Дата регистрации:
15 фев 2012, 16:44
Возраст: 28
Спасибо: 7223 / 2147
Сообщения: 67697
Год выхода: 1998
Жанр: фантастика, боевик, драма
Режиссер: Пол У. С. Андерсон

В ролях: Курт Расселл, Джейсон Скотт Ли, Джейсон Айзекс, Конни Нильсен, Шон Пертуи, Джаред Торн, Тейлор Торн, Марк Бринглсон, Гэри Бьюзи, К.К. Доддс

О фильме: Солдат забирают в армию чуть ли не с пелёнок. Ребёнок попадает в школу военных, где без родителей и всяких скидок на детство из отобранного человеческого материала готовят профессиональных солдат. Одним из таких солдат становится Тодд. До 40 с лишним лет провоевал он, став лучшим в своем отряде. Когда на его космический корабль прислали новичков, которые во всех отношениях должны превосходить ветеранов во главе с полковником, выпускником Вест-Пойнта, последний стравил трёх ветеранов с новым бойцом. Старики проиграли. Их выбросили на свалку далёкой планеты Аркадии, но Тодд выжил. Его выходили местные поселенцы, чей корабль много лет назад совершил на этой планете вынужденную посадку. Тодд остался жить среди них. В его душе были не только страх и дисциплина, как сказал он милой красивой женщине, выходившей его, но и доброта. Когда полковник высадил на планете новых солдат, чтобы испытать их в операции по уничтожению жителей колонии, Тодд доказал, что опыт в сочетании с человеческим фактором стоят гораздо больше, чем генетическая избранность и крепкие мускулы.



Страна: США, Великобритания
Продолжительность: 01:38:36
Перевод: Профессиональный (многоголосый, закадровый)[Варус видео]

Файл
Кодек: XviD
Качество: HDRip
Видео: 720x304 (2.37:1), 23.976 fps, XviD build 73 ~1784 kbps avg, 0.34 bit/pixel
Звук: 48 kHz, AC3 Dolby Digital, 2/0 (L,R) ch, ~192 kbps



General
Complete name : Soldier.1998.HDRip.ot.Portablius.avi
Format : AVI
Format/Info : Audio Video Interleave
File size : 1.37 GiB
Duration : 1 h 38 min
Overall bit rate : 1 986 kb/s
Writing application : VirtualDubMod 1.5.10.3 | http://www.virtualdub-fr.org || (build 2550/release)
Writing library : VirtualDubMod build 2550/release

Video
ID : 0
Format : MPEG-4 Visual
Format profile : Advanced Simple@L5
Format settings, BVOP : 1
Format settings, QPel : No
Format settings, GMC : No warppoints
Format settings, Matrix : Custom
Codec ID : XVID
Codec ID/Hint : XviD
Duration : 1 h 38 min
Bit rate : 1 784 kb/s
Width : 720 pixels
Height : 304 pixels
Display aspect ratio : 2.35:1
Frame rate : 23.976 (24000/1001) FPS
Original frame rate : 23.976 (23976/1000) FPS
Color space : YUV
Chroma subsampling : 4:2:0
Bit depth : 8 bits
Scan type : Progressive
Compression mode : Lossy
Bits/(Pixel*Frame) : 0.340
Stream size : 1.23 GiB (90%)
Writing library : XviD 73

Audio
ID : 1
Format : AC-3
Format/Info : Audio Coding 3
Format settings, Endianness : Big
Codec ID : 2000
Duration : 1 h 38 min
Bit rate mode : Constant
Bit rate : 192 kb/s
Channel(s) : 2 channels
Channel positions : Front: L R
Sampling rate : 48.0 kHz
Frame rate : 31.250 FPS (1536 spf)
Bit depth : 16 bits
Compression mode : Lossy
Stream size : 135 MiB (10%)
Alignment : Split accross interleaves
Interleave, duration : 42 ms (1.00 video frame)
Interleave, preload duratio : 500 ms
Service kind : Complete Main



_________________
Проголосуй за трекер Открытый торрент трекер - RUS-MEDIA.ORG

Проголосуй Открытый торрент трекер - RUS-MEDIA.ORG


Вернуться к началу
 Профиль Отправить личное сообщение  
 
   Похожие торренты   Автор   Торрент   Размер 
В этой теме нет новых непрочитанных сообщений. Солдат / Soldier [фантастика, боевик, драма, 1998] BDRip-AVC, Dub

salma3

116 | 20

746.29 МБ

В этой теме нет новых непрочитанных сообщений. Солдат / Soldier [фантастика, боевик, драма, 1998] BDRip, Dub

salma3

178 | 49

1.46 ГБ

В этой теме нет новых непрочитанных сообщений. Солдат / Soldier [фантастика, боевик, драма, 1998] BDRip 720p, Dub

salma3

0 | 0

4.55 ГБ

В этой теме нет новых непрочитанных сообщений. Солдат / Soldier [фантастика, боевик, драма, 1998] BDRip-HEVC 1080p, Dub

salma3

130 | 33

4.19 ГБ

В этой теме нет новых непрочитанных сообщений. Красавица Мемфиса / Memphis Belle [военный, драма, боевик, 1990] HDRip, Dub [Варус-Видео]

salma3

0 | 0

1.45 ГБ

В этой теме нет новых непрочитанных сообщений. Внутренний демон: Солдат с того света / Daemonium: Underground Soldier [Фантастика, боевик, 2015] WEBRip, Avo

salma3

317 | 115

1.45 ГБ

В этой теме нет новых непрочитанных сообщений. Неукротимый / На грани безумия / Неистовый / Frantic [триллер, драма, криминал, 1988] HDRip, Dub [Варус Видео]

salma3

29 | 7

1.45 ГБ


Начать новую тему Ответить на тему  [ 1 сообщение ] 




Для Мосгорсуда, Роскомнадзора и рекламодателей:: mosgorsud-torrent[собачка]yandex.ru
cron