Торрент файл
скачать торрент магнет ссылка Добавлен: 13 мар 2018, 21:50
Размер: 744.93 МБ
Сидеров: 0
Личеров: 1
Статус: (salma3)
Автор

СообщениеДобавлено: 13 мар 2018, 21:50 

Не в сети
Супермодератор
Аватара пользователя
Дата регистрации:
15 фев 2012, 16:44
Возраст: 28
Спасибо: 7204 / 2147
Сообщения: 65100
Год выхода: 1993
Жанр: Драма, криминал
Режиссер: Ларри Фергюсон / Larry Ferguson

В ролях: Чарли Шин, Линда Фиорентино, Майкл Мэдсен, Кортни Б. Вэнс, Леон Риппи, Деннис Беркли, Линдсей Ридделл, Рино Тандер, Рип Торн, Джеймс Оскар Ли

О фильме :
Дэн Сакс — полицейский под прикрытием. Он внедряется в банду байкеров, чтобы иметь возможность проконтролировать крупную операцию по поставке наркотиков. Чтобы заслужить доверие главаря, новичок должен совершать преступления наравне с членами группировки. Как далеко зайдет Дэн и каковы будут его «пределы закона»?



Страна: США
Продолжительность: 01:41:20
Перевод 1: Профессиональный (двухголосый закадровый) Синема Трейд
Перевод 2: Профессиональный (многоголосый закадровый) СВ-Дубль

Файл
Формат: MKV
Качество: HDRip-AVC
Видео: MPEG-4 AVC, 720x404, ~ 874 Кбит/с
Аудио: AAC-HE, 2 ch, ~ 76 Кбит/с

Общее
Уникальный идентификатор : 173150794771052601155062505071257422376 (0x8243A14B3ECADF3797693A3FE4218A28)
Полное имя : D:MOVIESBeyond.the.Law.1993.ExKinoRay.mkv
Формат : Matroska
Версия формата : Version 4 / Version 2
Размер файла : 745 Мбайт
Продолжительность : 1 ч. 41 м.
Общий поток : 1028 Кбит/сек
Дата кодирования : UTC 2018-03-13 16:40:45
Программа кодирования : mkvmerge v15.0.0 ('Duel with the Devil') 64-bit
Библиотека кодирования : libebml v1.3.5 + libmatroska v1.4.5

Видео
Идентификатор : 1
Формат : AVC
Формат/Информация : Advanced Video Codec
Профиль формата : High@L4.1
Параметр CABAC формата : Да
Параметр RefFrames формата : 10 кадров
Идентификатор кодека : V_MPEG4/ISO/AVC
Продолжительность : 1 ч. 41 м.
Битрейт : 874 Кбит/сек
Ширина : 720 пикселей
Высота : 404 пикселя
Соотношение сторон : 16:9
Режим частоты кадров : Постоянный
Частота кадров : 23,976 (24000/1001) кадра/сек
Цветовое пространство : YUV
Субдискретизация насыщенности : 4:2:0
Битовая глубина : 8 бит
Тип развёртки : Прогрессивная
Бит/(Пиксели*Кадры) : 0.125
Размер потока : 633 Мбайт (85%)
Библиотека кодирования : x264 core 155 r2901 7d0ff22
Настройки программы : cabac=1 / ref=10 / deblock=1:-3:-2 / analyse=0x3:0x133 / me=umh / subme=11 / psy=1 / psy_rd=1.00:0.11 / mixed_ref=1 / me_range=32 / chroma_me=1 / trellis=2 / 8x8dct=1 / cqm=0 / deadzone=21,11 / fast_pskip=0 / chroma_qp_offset=-3 / threads=6 / lookahead_threads=1 / sliced_threads=0 / nr=0 / decimate=0 / interlaced=0 / bluray_compat=0 / constrained_intra=0 / bframes=10 / b_pyramid=2 / b_adapt=2 / b_bias=0 / direct=3 / weightb=1 / open_gop=0 / weightp=2 / keyint=240 / keyint_min=23 / scenecut=40 / intra_refresh=0 / rc_lookahead=40 / rc=2pass / mbtree=1 / bitrate=874 / ratetol=1.0 / qcomp=0.60 / qpmin=0 / qpmax=69 / qpstep=4 / cplxblur=20.0 / qblur=0.5 / vbv_maxrate=50000 / vbv_bufsize=62500 / nal_hrd=none / filler=0 / ip_ratio=1.40 / aq=3:1.00
Default : Да
Forced : Нет

Аудио #1
Идентификатор : 2
Формат : AAC
Формат/Информация : Advanced Audio Codec
Профиль формата : HE-AAC / LC
Идентификатор кодека : A_AAC
Продолжительность : 1 ч. 41 м.
Битрейт : 76,0 Кбит/сек
Каналы : 2 канала
Расположение каналов : Front: L R
Частота : 48,0 КГц / 24,0 КГц
Частота кадров : 23,438 кадра/сек (1024 SPF)
Метод сжатия : С потерями
Задержка видео : 31 мс.
Размер потока : 55,1 Мбайт (7%)
Язык : Russian
Default : Да
Forced : Нет

Аудио #2
Идентификатор : 3
Формат : AAC
Формат/Информация : Advanced Audio Codec
Профиль формата : HE-AAC / LC
Идентификатор кодека : A_AAC
Продолжительность : 1 ч. 41 м.
Битрейт : 76,0 Кбит/сек
Каналы : 2 канала
Расположение каналов : Front: L R
Частота : 48,0 КГц / 24,0 КГц
Частота кадров : 23,438 кадра/сек (1024 SPF)
Метод сжатия : С потерями
Задержка видео : 31 мс.
Размер потока : 55,1 Мбайт (7%)
Default : Нет
Forced : Нет

Меню
00:00:00.000 : :
00:05:37.837 : :
00:11:15.633 : :
00:16:53.429 : :
00:22:31.225 : :
00:28:09.021 : :
00:33:46.816 : :
00:39:24.612 : :
00:45:02.408 : :
00:50:40.246 : :
00:56:18.041 : :
01:01:55.837 : :
01:07:33.633 : :
01:13:11.429 : :
01:18:49.225 : :
01:24:27.020 : :
01:30:04.816 : :
01:35:42.612 : :




Релиз от:


_________________
Проголосуй за трекер Открытый торрент трекер - RUS-MEDIA.ORG

Проголосуй Открытый торрент трекер - RUS-MEDIA.ORG


Вернуться к началу
 Профиль Отправить личное сообщение  
 
   Похожие торренты   Автор   Торрент   Размер 
В этой теме нет новых непрочитанных сообщений. За пределами закона / Beyond The Law [Боевик, приключения, драма, криминал, 1993] BDRip, Mvo

salma3

433 | 68

1.45 ГБ

В этой теме нет новых непрочитанных сообщений. За пределами тьмы / Buio Omega [ужасы, драма, мелодрама, криминал, 1979] BDRip 720p, Avo

salma3

68 | 24

4.55 ГБ

В этой теме нет новых непрочитанных сообщений. Вне закона / Hors-la-loi [Драма, криминал, 2010] BDRip 720p, Dvo+Sub

salma3

72 | 13

6.99 ГБ

В этой теме нет новых непрочитанных сообщений. Без крыши, вне закона / Sans toit ni loi [драма, мелодрама, 1985] HDRip, Dvo [НТВ]

salma3

0 | 0

1.45 ГБ

В этой теме нет новых непрочитанных сообщений. Вне закона / Gunday (Али Аббас Зафар) [боевик, триллер, драма, 2014] HDRip, Mvo

Dracon

36 | 5

1.46 ГБ

В этой теме нет новых непрочитанных сообщений. Бронкская история / A Bronx Tale [драма, криминал, 1993] HDRip, Mvo

salma3

189 | 19

1.45 ГБ

В этой теме нет новых непрочитанных сообщений. С меня хватит! / Falling Down [триллер, драма, криминал, 1993] HDRip-AVC, Mvo

salma3

63 | 14

745.88 МБ


Начать новую тему Ответить на тему  [ 1 сообщение ] 




Для Мосгорсуда, Роскомнадзора и рекламодателей:: mosgorsud-torrent[собачка]yandex.ru
cron