Торрент файл
скачать торрент магнет ссылка Добавлен: 13 мар 2018, 18:02
Размер: 3.22 ГБ
Сидеров: 91
Личеров: 31
Статус: (salma3)
Автор

СообщениеДобавлено: 13 мар 2018, 18:02 

Не в сети
Супермодератор
Аватара пользователя
Дата регистрации:
15 фев 2012, 16:44
Возраст: 29
Спасибо: 7328 / 2147
Сообщения: 73715
Год выпуска: 2017
Жанр: Фантастика, фэнтези, боевик
Режиссер: Райан Джонсон

В ролях: Джон Бойега, Дэйзи Ридли, Оскар Айзек, Адам Драйвер, Донал Глисон, Марк Хэмилл, Макс фон Сюдов, Энди Серкис, Лупита Нионго, Энтони Дэниелс, Питер Мейхью, Гвендолин Кристи, Пип Андерсон, Саймон Пегг, Киран Шах, Саша Фрост, Пип Торренс, Эндрю Джек

О фильме:
Новая история о противостоянии света и тьмы, добра и зла начинается после гибели Хана Соло. В Галактике, где Первый Орден и Сопротивление яростно сражаются друг с другом в войне, героиня Рей пробудила в себе Силу. Но что произойдет, когда она встретится с единственным оставшимся в живых рыцарем-джедаем — Люком Скайуокером? Кайло Рен перешел на Темную сторону Силы и убил собственного отца, заняв высокую позицию в Первом Ордене. Но куда приведут его неуемные амбиции, подаренные по наследству грозным дедом Дартом Вейдером? Ситуация обострится еще больше, когда мать Кайло, лидер Сопротивления Лея, вместе с По, Финном и BB-8 приступит к новой миссии.



Страна: США
Продолжительность: 02:31:51
Перевод: Дублированный | iTunes
Субтитры: Русские , английские

Файл
Формат: MKV
Качество: HDRip-AVC
Видео: 1024x428 (2.40:1), 23,976 fps, AVC MPEG-4 (x264), , ~ 2 198 Кбит/сек, 0.209 bit/pixel
Аудио1: Русский: 48 kHz/16-bit, AC3 Dolby Digital, 6 ch, ~ 384 kbps avg
Аудио2: Английский: 48 kHz/16-bit, AC3 Dolby Digital, 6 ch, ~ 448 kbps avg


Общее
Уникальный идентификатор : 204005421146614978932812321590385646869 (0x997A03D321A35D1CBF1665025BA11D15)
Полное имя : E:\Закачка-2\Star.Wars.The.Last.Jedi.2017.D.HDRip.AVC.ExKinoRay.mkv
Формат : Matroska
Версия формата : Version 2
Размер файла : 3,22 Гбайт
Продолжительность : 2 ч. 32 м.
Общий поток : 3028 Кбит/сек
Название фильма : Star Wars The Last Jedi 2017 from ExKinoRay
Дата кодирования : UTC 2018-03-12 21:16:32
Программа кодирования : mkvmerge v5.6.0 ('Kenya Kane') built on May 27 2012 16:44:04
Библиотека кодирования : libebml v1.2.3 + libmatroska v1.3.0

Видео
Идентификатор : 1
Формат : AVC
Формат/Информация : Advanced Video Codec
Профиль формата :
Параметр CABAC формата : Да
Параметр ReFrames формата : 12 кадров
Идентификатор кодека : V_MPEG4/ISO/AVC
Продолжительность : 2 ч. 32 м.
Битрейт : 2198 Кбит/сек
Ширина : 1024 пикселя
Высота : 428 пикселей
Соотношение сторон : 2,40:1
Режим частоты кадров : Постоянный
Частота кадров : 23,976 (23976/1000) кадра/сек
Цветовое пространство : YUV
Субдискретизация насыщенности : 4:2:0
Битовая глубина : 8 бит
Тип развёртки : Прогрессивная
Бит/(Пиксели*Кадры) : 0.209
Размер потока : 2,27 Гбайт (71%)
Заголовок : Enigma
Библиотека кодирования : x264 core 152 r2851 ba24899
Настройки программы : cabac=1 / ref=12 / deblock=1:-2:-3 / analyse=0x3:0x113 / me=umh / subme=11 / psy=1 / psy_rd=1.05:0.10 / mixed_ref=1 / me_range=32 / chroma_me=1 / trellis=2 / 8x8dct=1 / cqm=0 / deadzone=21,11 / fast_pskip=0 / chroma_qp_offset=-3 / threads=12 / lookahead_threads=2 / sliced_threads=0 / nr=0 / decimate=0 / interlaced=0 / bluray_compat=0 / constrained_intra=0 / bframes=9 / b_pyramid=2 / b_adapt=2 / b_bias=0 / direct=3 / weightb=1 / open_gop=0 / weightp=2 / keyint=240 / keyint_min=23 / scenecut=40 / intra_refresh=0 / rc_lookahead=40 / rc=2pass / mbtree=0 / bitrate=2198 / ratetol=1.0 / qcomp=0.60 / qpmin=0 / qpmax=51 / qpstep=4 / cplxblur=20.0 / qblur=0.5 / vbv_maxrate=50000 / vbv_bufsize=62500 / nal_hrd=none / filler=0 / ip_ratio=1.40 / pb_ratio=1.30 / aq=3:0.80
Язык : English
Default : Да
Forced : Нет
Цветовой диапазон : Limited
Основные цвета : BT.709
Характеристики трансфера : BT.709
Коэффициенты матрицы : BT.709

Аудио #1
Идентификатор : 2
Формат : AC-3
Формат/Информация : Audio Coding 3
Расширение режима : CM (complete main)
Параметр Endianness формата : Big
Идентификатор кодека : A_AC3
Продолжительность : 2 ч. 32 м.
Вид битрейта : Постоянный
Битрейт : 384 Кбит/сек
Каналы : 6 каналов
Расположение каналов : Front: L C R, Side: L R, LFE
Частота : 48,0 КГц
Частота кадров : 31,250 кадров/сек (1536 spf)
Метод сжатия : С потерями
Размер потока : 418 Мбайт (13%)
Заголовок : iTunes
Язык : Russian
Default : Да
Forced : Нет

Аудио #2
Идентификатор : 3
Формат : AC-3
Формат/Информация : Audio Coding 3
Расширение режима : CM (complete main)
Параметр Endianness формата : Big
Идентификатор кодека : A_AC3
Продолжительность : 2 ч. 32 м.
Вид битрейта : Постоянный
Битрейт : 448 Кбит/сек
Каналы : 6 каналов
Расположение каналов : Front: L C R, Side: L R, LFE
Частота : 48,0 КГц
Частота кадров : 31,250 кадров/сек (1536 spf)
Метод сжатия : С потерями
Размер потока : 487 Мбайт (15%)
Язык : English
Default : Нет
Forced : Нет

Текст #1
Идентификатор : 4
Формат : UTF-8
Идентификатор кодека : S_TEXT/UTF8
Идентификатор кодека/Информация : UTF-8 Plain Text
Заголовок : Forced
Язык : Russian
Default : Да
Forced : Нет

Текст #2
Идентификатор : 5
Формат : UTF-8
Идентификатор кодека : S_TEXT/UTF8
Идентификатор кодека/Информация : UTF-8 Plain Text
Язык : Russian
Default : Нет
Forced : Нет

Текст #3
Идентификатор : 6
Формат : UTF-8
Идентификатор кодека : S_TEXT/UTF8
Идентификатор кодека/Информация : UTF-8 Plain Text
Язык : English
Default : Нет
Forced : Нет

Меню
00:00:00.000 : en:00:00:00.000
00:00:18.644 : en:00:00:18.644
00:01:45.731 : en:00:01:45.731
00:03:11.817 : en:00:03:11.817
00:07:43.296 : en:00:07:43.296
00:12:48.434 : en:00:12:48.434
00:13:44.574 : en:00:13:44.574
00:16:29.280 : en:00:16:29.280
00:19:59.281 : en:00:19:59.281
00:22:51.370 : en:00:22:51.370
00:26:04.980 : en:00:26:04.980
00:27:22.850 : en:00:27:22.850
00:31:24.758 : en:00:31:24.758
00:32:54.681 : en:00:32:54.681
00:35:27.667 : en:00:35:27.667
00:38:11.498 : en:00:38:11.498
00:41:53.428 : en:00:41:53.428
00:44:29.542 : en:00:44:29.542
00:46:51.475 : en:00:46:51.475
00:51:41.932 : en:00:51:41.932
00:53:50.060 : en:00:53:50.060
00:55:41.505 : en:00:55:41.505
00:57:39.581 : en:00:57:39.581
00:59:16.636 : en:00:59:16.636
01:02:05.847 : en:01:02:05.847
01:03:07.701 : en:01:03:07.701
01:05:41.729 : en:01:05:41.729
01:07:03.478 : en:01:07:03.478
01:10:25.721 : en:01:10:25.721
01:13:30.323 : en:01:13:30.323
01:17:43.450 : en:01:17:43.450
01:20:53.057 : en:01:20:53.057
01:24:17.970 : en:01:24:17.970
01:26:23.220 : en:01:26:23.220
01:27:59.524 : en:01:27:59.524
01:30:49.361 : en:01:30:49.361
01:32:54.569 : en:01:32:54.569
01:35:53.706 : en:01:35:53.706
01:37:10.616 : en:01:37:10.616
01:39:12.864 : en:01:39:12.864
01:42:07.663 : en:01:42:07.663
01:45:03.714 : en:01:45:03.714
01:49:35.694 : en:01:49:35.694
01:52:20.609 : en:01:52:20.609
01:56:04.749 : en:01:56:04.749
01:58:52.083 : en:01:58:52.083
02:03:11.134 : en:02:03:11.134
02:06:39.759 : en:02:06:39.759
02:11:43.604 : en:02:11:43.604
02:15:12.104 : en:02:15:12.104
02:20:16.700 : en:02:20:16.700
02:23:39.694 : en:02:23:39.694




_________________
Проголосуй за трекер Открытый торрент трекер - RUS-MEDIA.ORG

Проголосуй Открытый торрент трекер - RUS-MEDIA.ORG


Вернуться к началу
 Профиль Отправить личное сообщение  
 
   Похожие торренты   Автор   Торрент   Размер 
В этой теме нет новых непрочитанных сообщений. Звездные войны: Последние джедаи / Star Wars: Episode VIII - The Last Jedi [Фантастика, фэнтези, боевик, 2017] HDRip-AVC, Dub [iTunes]

salma3

66 | 28

3.22 ГБ

В этой теме нет новых непрочитанных сообщений. Звездные войны: Последние джедаи / Star Wars: Episode VIII - The Last Jedi [Фантастика, фэнтези, боевик, 2017] HDRip, Dub [iTunes]

salma3

235 | 58

1.46 ГБ

В этой теме нет новых непрочитанных сообщений. Звездные войны: Последние джедаи / Star Wars: Episode VIII - The Last Jedi [Фантастика, фэнтези, боевик, 2017] HDRip, Dub [iTunes]

salma3

0 | 0

2.18 ГБ

В этой теме нет новых непрочитанных сообщений. Звездные войны: Последние джедаи / Star Wars: Episode VIII - The Last Jedi [Фантастика, фэнтези, боевик, 2017] BDRip 1080p, Dub [iTunes]

salma3

137 | 90

12.08 ГБ

В этой теме нет новых непрочитанных сообщений. Звёздные войны: Последние джедаи / Star Wars: Episode VIII - The Last Jedi [фантастика, фэнтези, боевик, 2017] HDRip, Dub [лицензия]

salma3

183 | 38

1.46 ГБ

В этой теме нет новых непрочитанных сообщений. Звездные войны: Последние джедаи / Star Wars: Episode VIII - The Last Jedi [Фантастика, фэнтези, боевик, 2017] BDRip 720p от ExKinoRay | iTunes

salma3

51 | 31

7.65 ГБ

В этой теме нет новых непрочитанных сообщений. Звёздные войны: Последние джедаи / Star Wars: Episode VIII - The Last Jedi [Фантастика, боевик, приключения, 2017] BDRip 1080p, Dub [iTunes]

salma3

0 | 0

18.72 ГБ


Начать новую тему Ответить на тему  [ 1 сообщение ] 




Для Мосгорсуда, Роскомнадзора и рекламодателей:: mosgorsud-torrent[собачка]yandex.ru
cron