Торрент файл
скачать торрент магнет ссылка Добавлен: 07 мар 2018, 11:57
Размер: 1.37 ГБ
Сидеров: 0
Личеров: 0
Статус: (salma3)
Автор

СообщениеДобавлено: 07 мар 2018, 11:57 

Не в сети
Супермодератор
Аватара пользователя
Дата регистрации:
15 фев 2012, 16:44
Возраст: 28
Спасибо: 7203 / 2147
Сообщения: 65002
Год выпуска:2017
Жанр: мелодрама
Режиссер: Дуглас Митчелл / Douglas Mitchell

В ролях:Эшли Ньюбро, Джесси Хатч, Адам Хертиг, Лорен Кокрейн, Том Аннико, Тамара Горски, Коннор Питерсон

Описание:
У двух друзей, Ника и Сары, есть традиция. Каждый год под Рождество они лепят из снега парня мечты Сары. После очередного расставания Сара начинает думать, что уже никогда не встретит идеального мужчину. Но случается чудо, и её снежный парень мечты оживает...



Страна: США
Продолжительность: 01:23:40
Перевод:Профессиональный (многоголосый, закадровый)

Качество: HDTVRip
Видео: 720x400 (16:9), 25.000 fps, XviD build 65 ~1 948 kbps avg
Аудио №1: 48.0 kHz, AC3 Dolby Digital, 2/0 (L,R) ch, ~192 kbps | RUS
Аудио №2: 48.0 kHz, AC3 Dolby Digital, 2/0 (L,R) ch, ~192 kbps | ENG

Релиз от: miha2154

General
Полное имя : Снежный роман.avi
Формат : AVI
Формат/Информация : Audio Video Interleave
Размер файла : 1,37 Гбайт
Продолжительность : 1 ч. 23 м.
Общий поток : 2347 Кбит/сек
Название фильма : Снежный роман / Snowmance (2017)
Программа кодирования : VirtualDubMod 1.5.10.2 (build 2540/release)
Библиотека кодирования : VirtualDubMod build 2540/release
Авторское право : miha2154

Видео
Идентификатор : 0
Формат : MPEG-4 Visual
Профиль формата : Advanced Simple@L5
Параметр BVOP формата : 1
Параметр QPel формата : Нет
Параметр GMC формата : Без точки перехода
Параметр матрицы формата : Выборочная
Идентификатор кодека : XVID
Идентификатор кодека/Подсказка : XviD
Продолжительность : 1 ч. 23 м.
Битрейт : 1948 Кбит/сек
Ширина : 720 пикселей
Высота : 400 пикселей
Соотношение сторон : 16:9
Частота кадров : 25,000 кадров/сек
Цветовое пространство : YUV
Субдискретизация насыщенности : 4:2:0
Битовая глубина : 8 бит
Тип развёртки : Прогрессивная
Метод сжатия : С потерями
Бит/(Пиксели*Кадры) : 0.271
Размер потока : 1,14 Гбайт (83%)
Библиотека кодирования : XviD 65

Аудио #1
Идентификатор : 1
Формат : AC-3
Формат/Информация : Audio Coding 3
Расширение режима : CM (complete main)
Параметр Endianness формата : Big
Идентификатор кодека : 2000
Продолжительность : 1 ч. 23 м.
Вид битрейта : Постоянный
Битрейт : 192 Кбит/сек
Каналы : 2 канала
Расположение каналов : Front: L R
Частота : 48,0 КГц
Частота кадров : 31,250 кадров/сек (1536 spf)
Метод сжатия : С потерями
Размер потока : 115 Мбайт (8%)
Выравнивание : Разделение по промежуткам
Продолжительность промежутка : 40 мс. (1,00 видеокадр)
Время предзагрузки промежутка : 500 мс.
Заголовок : Профессиональный (многоголосый закадровый)

Аудио #2
Идентификатор : 2
Формат : AC-3
Формат/Информация : Audio Coding 3
Расширение режима : CM (complete main)
Параметр Endianness формата : Big
Идентификатор кодека : 2000
Продолжительность : 1 ч. 23 м.
Вид битрейта : Постоянный
Битрейт : 192 Кбит/сек
Каналы : 2 канала
Расположение каналов : Front: L R
Частота : 48,0 КГц
Частота кадров : 31,250 кадров/сек (1536 spf)
Метод сжатия : С потерями
Размер потока : 115 Мбайт (8%)
Выравнивание : Разделение по промежуткам
Продолжительность промежутка : 40 мс. (1,00 видеокадр)
Время предзагрузки промежутка : 500 мс.
Заголовок : Английский


_________________
Проголосуй за трекер Открытый торрент трекер - RUS-MEDIA.ORG

Проголосуй Открытый торрент трекер - RUS-MEDIA.ORG


Вернуться к началу
 Профиль Отправить личное сообщение  
 
   Похожие торренты   Автор   Торрент   Размер 
В этой теме нет новых непрочитанных сообщений. Деревенский роман [1-16 серии из 16] [Мелодрама, 2016] HDTVRip

Dracon

162 | 35

8.59 ГБ

В этой теме нет новых непрочитанных сообщений. Деревенский роман [1-16 серии из 16] [Мелодрама, 2016] HDTVRip 720p

Dracon

45 | 26

25.14 ГБ

В этой теме нет новых непрочитанных сообщений. Проект «Снежный человек» / The Bigfoot Project [комедия, 2017] WEB-DLRip, Mvo

salma3

315 | 156

1.37 ГБ

В этой теме нет новых непрочитанных сообщений. Чужое гнездо [серия 1-48 из 60] (Елена Цыплакова, Денис Карро, Александр Ламакин, Роман Нестеренко, Александр Строев) [Мелодрама, семейная сага, драма, 2015] HDTVRip

Dracon

0 | 5

25.76 ГБ

В этой теме нет новых непрочитанных сообщений. Чужое гнездо [серия 1-44 из 60] (Елена Цыплакова, Денис Карро, Александр Ламакин, Роман Нестеренко, Александр Строев) [Мелодрама, семейная сага, драма, 2015] HDTVRip

Dracon

6 | 12

23.61 ГБ

В этой теме нет новых непрочитанных сообщений. Чужое гнездо [серия 1-54 из 60] (Елена Цыплакова, Денис Карро, Александр Ламакин, Роман Нестеренко, Александр Строев) [Мелодрама, семейная сага, драма, 2015] HDTVRip

Dracon

6 | 7

28.98 ГБ

В этой теме нет новых непрочитанных сообщений. Чужое гнездо [серия 1-50 из 60] (Елена Цыплакова, Денис Карро, Александр Ламакин, Роман Нестеренко, Александр Строев) [Мелодрама, семейная сага, драма, 2015] HDTVRip

Dracon

25 | 23

26.83 ГБ


Начать новую тему Ответить на тему  [ 1 сообщение ] 




Для Мосгорсуда, Роскомнадзора и рекламодателей:: mosgorsud-torrent[собачка]yandex.ru
cron