Торрент файл
скачать торрент магнет ссылка Добавлен: 02 мар 2018, 12:02
Размер: 1.4 ГБ
Сидеров: 63
Личеров: 25
Статус: (salma3)
Автор

СообщениеДобавлено: 02 мар 2018, 12:02 

Не в сети
Супермодератор
Аватара пользователя
Дата регистрации:
15 фев 2012, 16:44
Возраст: 28
Спасибо: 7290 / 2147
Сообщения: 70553
Год выхода:2017
Жанр: драма, мелодрама, детектив
Режиссер: Блэйк Роббинс

В ролях: Джастин Чатвин, Майка Монро, Мэгги Грэйс ("Остаться в живых"), Бонни Беделиа ("Крепкий орешек", "Крепкий орешек 2"), Марк Веббер, Уилл Пэттон ("Нет выхода"), Логан Миллер, Аарон Пул, Брэд Картер, Мэг Кросби и другие.

О фильме:
Молодая девушка по имени Джоди Линдер (Майка Монро) живет в маленьком американском городке. Она происходит из уважаемой в округе семьи, а её деду принадлежит большое ранчо. Внезапно Джоди узнает, что из тюрьмы выходит местный житель, который 12 лет назад был осужден за зверское убийство ее родителей (Джастин Чатвин и Мэгги Грэйс). Это шокирует девушку, и она еще больше поражается, когда сын преступника уверяет ее, что в свое время дал на суде ложные показания, чтобы избавиться от отца-алкоголика. По настоянию деда она возвращается на ранчо, на котором провела своё детство. Джоди все ещё не верит, что тот, кто убил её мать и отца, действительно невиновен, но она все же решает разобраться, как погибли ее родители. Чем больше она узнает подробностей о трагедии из ее прошлого, тем больше она понимает, что дом её дедушки (Уилл Пэттон) и бабушки (Бонни Беделиа) хранит много неприятных тайн и склетов в шкафу. Драма с детективным уклоном из жизни простых американцев, живущих в небольшом городке в американской глубинке.



Релиз от: apollion
Страна: США
Продолжительность: 01:42:52
Перевод: Любительский (многоголосый закадровый) (студия "HDrezka Studio")

Файл
Кодек: MPEG-4, XviD
Качество: HDRip
Видео: 720x304, 23.976 fps, ~ 1550 kbps
Звук: AC3 Dolby Digital, 2 ch, 384 kbps, 48 kHz
Субтитры: Английские

Сэмпл

Реклама отсутствует.

Общее
Формат : AVI
Формат/Информация : Audio Video Interleave
Размер файла : 1,40 Гбайт
Продолжительность : 1 ч. 42 м.
Общий поток : 1942 Кбит/сек
Программа кодирования : VirtualDubMod 1.5.10.2 (build 2540/release)
Библиотека кодирования : VirtualDubMod build 2540/release

Видео
Идентификатор : 0
Формат : MPEG-4 Visual
Профиль формата : Advanced Simple@L5
Параметр BVOP формата : 2
Параметр QPel формата : Нет
Параметр GMC формата : Без точки перехода
Параметр матрицы формата : Default (H.263)
Режим смешивания : Сжатый битовый поток
Идентификатор кодека : XVID
Идентификатор кодека/Подсказка : XviD
Продолжительность : 1 ч. 42 м.
Битрейт : 1549 Кбит/сек
Ширина : 720 пикс.
Высота : 304 пикс.
Соотношение сторон : 2,35:1
Частота кадров : 23,976 кадр/сек
Цветовое пространство : YUV
Подвыборка цветности : 4:2:0
Битовая глубина : 8 бит
Тип развёртки : Прогрессивная
Метод сжатия : С потерями
Бит/(Пиксели*Кадры) : 0.295
Размер потока : 1,11 Гбайт (80%)
Библиотека кодирования : XviD 66

Аудио
Идентификатор : 1
Формат : AC-3
Формат/Информация : Audio Coding 3
Профиль формата : Dolby Digital
Расширение режима : CM (complete main)
Идентификатор кодека : 2000
Продолжительность : 1 ч. 42 м.
Вид битрейта : Постоянный
Битрейт : 384 Кбит/сек
Каналы : 2 канала
Расположение каналов : Front: L R
Частота : 48,0 КГц
Битовая глубина : 16 бит
Метод сжатия : С потерями
Размер потока : 283 Мбайт (20%)
Выравнивание : Разделение по промежуткам
Продолжительность промежутка : 42 мс. (1,00 видеокадр)
Время предзагрузки промежутка : 500 ms


_________________
Проголосуй за трекер Открытый торрент трекер - RUS-MEDIA.ORG

Проголосуй Открытый торрент трекер - RUS-MEDIA.ORG


Вернуться к началу
 Профиль Отправить личное сообщение  
 
   Похожие торренты   Автор   Торрент   Размер 
В этой теме нет новых непрочитанных сообщений. Запах дождя и молнии / The Scent of Rain & Lightning [Драма, детектив, вестерн, 2017] WEB-DL 1080p, Mvo

salma3

225 | 157

3.83 ГБ

В этой теме нет новых непрочитанных сообщений. Человек дождя / Rain Man [драма, 1988] HDRip, Mvo [НТВ+]

salma3

34 | 11

1.46 ГБ

В этой теме нет новых непрочитанных сообщений. После дождя / After the Rain [драма, 1999] SATRip, Dvo

salma3

9 | 3

1.09 ГБ

В этой теме нет новых непрочитанных сообщений. Человек дождя / Rain Man [драма, 1988] BDRip 720p, Dub

salma3

2 | 0

15.95 ГБ

В этой теме нет новых непрочитанных сообщений. Цветы дождя [01-08 из 08] [Мелодрама, 2017] WEBRip-AVC

salma3

54 | 12

4.46 ГБ

В этой теме нет новых непрочитанных сообщений. Цветы дождя [01-08 из 08] [Мелодрама, 2017] SATRip-AVC

salma3

53 | 30

4.12 ГБ

В этой теме нет новых непрочитанных сообщений. Как громом поражённый / Hit by Lightning [мелодрама, комедия, криминал, 2014] HDRip, Mvo

salma3

152 | 58

1.43 ГБ


Начать новую тему Ответить на тему  [ 1 сообщение ] 




Для Мосгорсуда, Роскомнадзора и рекламодателей:: mosgorsud-torrent[собачка]yandex.ru
cron