Торрент файл
скачать торрент магнет ссылка Добавлен: 01 мар 2018, 21:58
Размер: 2 ГБ
Сидеров: 0
Личеров: 0
Статус: (salma3)
Автор

СообщениеДобавлено: 01 мар 2018, 21:58 

Не в сети
Супермодератор
Аватара пользователя
Дата регистрации:
15 фев 2012, 16:44
Возраст: 28
Спасибо: 7290 / 2147
Сообщения: 70815
Год выхода: 1992
Жанр: Мелодрама, комедия
Режиссер: Питер Богданович

В ролях: Кэрол Бурнетт, Майкл Кейн, Денхолм Эллиотт, Джули Хэгерти, Кристофер Рив, Николлетт Шеридан

О фильме:
Театральный режиссер – это профессия не для слабых духом. Нужно иметь железные нервы для того, чтобы поставить пьесу вопреки нечеловеческим усилиям актеров все испортить. Те, похоже, настолько погружены в собственные проблемы, что времени для работы совсем не остается. Происходящее с героями на сцене не выдерживает никакого сравнения с тем бедламом, что творится за кулисами! По всему видно, что для этого "серпентария единомышленников" нужен не режиссер, а цирковой укротитель…



Страна: США
Продолжительность: 01:43:38
Перевод: Профессиональный многоголосый + профессиональный двухголосый + авторский + оригинал
Субтитры: Русские, английские

Файл
Качество: DVDRip-AVC
Видео: AVC/H.264, 720x384, ~1800 Kbps
Аудио 1: Русский, AC3, 2 ch, 192 Kbps, 48.0 kHz (МVO, Многоголосый, СТС)
Аудио 2: Русский, AC3, 2 ch, 192 Kbps, 48.0 kHz (МVO, Многоголосый)
Аудио 3: Русский, AC3, 2 ch, 192 Kbps, 48.0 kHz (DVO, Двухголосый)
Аудио 4: Русский, AC3, 2 ch, 192 Kbps, 48.0 kHz (AVO, Авторский, В. Горчаков)
Аудио 5: Английский, AC3, 2 ch, 192 Kbps, 48.0 kHz (Оригинал)



Общее
Уникальный идентификатор : 234274889579706740216889102353122716697 (0xB03FB3D76E2EBDDAAFEF6A50E3B7EC19)
Полное имя : F:DownloadsБезумные подмостки. 1992. NNMCLUB.mkv
Формат : Matroska
Версия формата : Version 4 / Version 2
Размер файла : 2,00 Гбайт
Продолжительность : 1 ч. 43 м.
Общий поток : 2763 Кбит/сек
Дата кодирования : UTC 2018-02-26 13:02:31
Программа кодирования : mkvmerge v7.9.0 ('Birds') 64bit
Библиотека кодирования : libebml v1.3.1 + libmatroska v1.4.2

Видео
Идентификатор : 1
Формат : AVC
Формат/Информация : Advanced Video Codec
Профиль формата : High@L4.1
Настройки формата : CABAC / 12 Ref Frames
Параметр CABAC формата : Да
Параметр RefFrames формата : 12 кадров
Идентификатор кодека : V_MPEG4/ISO/AVC
Продолжительность : 1 ч. 43 м.
Битрейт : 1800 Кбит/сек
Ширина : 720 пикселей
Высота : 384 пикселя
Соотношение сторон : 1,85:1
Режим частоты кадров : Постоянный
Частота кадров : 23,976 (24000/1001) кадра/сек
Цветовое пространство : YUV
Субдискретизация насыщенности : 4:2:0
Битовая глубина : 8 бит
Тип развёртки : Прогрессивная
Бит/(Пиксели*Кадры) : 0.272
Размер потока : 1,30 Гбайт (65%)
Заголовок : Noises Off...
Библиотека кодирования : x264 core 146 r2538 121396c
Настройки программы : cabac=1 / ref=12 / deblock=1:-1:-1 / analyse=0x3:0x113 / me=umh / subme=10 / psy=1 / psy_rd=1.00:0.10 / mixed_ref=1 / me_range=32 / chroma_me=1 / trellis=2 / 8x8dct=1 / cqm=0 / deadzone=21,11 / fast_pskip=0 / chroma_qp_offset=-3 / threads=6 / lookahead_threads=1 / sliced_threads=0 / nr=0 / decimate=0 / interlaced=0 / bluray_compat=0 / constrained_intra=0 / bframes=7 / b_pyramid=2 / b_adapt=2 / b_bias=0 / direct=3 / weightb=1 / open_gop=0 / weightp=2 / keyint=250 / keyint_min=25 / scenecut=40 / intra_refresh=0 / rc_lookahead=60 / rc=2pass / mbtree=1 / bitrate=1800 / ratetol=1.0 / qcomp=0.60 / qpmin=0 / qpmax=69 / qpstep=4 / cplxblur=20.0 / qblur=0.5 / vbv_maxrate=14000 / vbv_bufsize=14000 / nal_hrd=none / filler=0 / ip_ratio=1.40 / aq=1:1.00
Язык : English
Default : Да
Forced : Нет

Аудио #1
Идентификатор : 2
Формат : AC-3
Формат/Информация : Audio Coding 3
Идентификатор кодека : A_AC3
Продолжительность : 1 ч. 43 м.
Вид битрейта : Постоянный
Битрейт : 192 Кбит/сек
Каналы : 2 канала
Расположение каналов : Front: L R
Частота : 48,0 КГц
Частота кадров : 31,250 кадров/сек (1536 SPF)
Битовая глубина : 16 бит
Метод сжатия : С потерями
Размер потока : 142 Мбайт (7%)
Заголовок : Многоголосый закадровый, СТС
Язык : Russian
ServiceKind : Complete Main
Default : Да
Forced : Нет

Аудио #2
Идентификатор : 3
Формат : AC-3
Формат/Информация : Audio Coding 3
Идентификатор кодека : A_AC3
Продолжительность : 1 ч. 43 м.
Вид битрейта : Постоянный
Битрейт : 192 Кбит/сек
Каналы : 2 канала
Расположение каналов : Front: L R
Частота : 48,0 КГц
Частота кадров : 31,250 кадров/сек (1536 SPF)
Битовая глубина : 16 бит
Метод сжатия : С потерями
Размер потока : 142 Мбайт (7%)
Заголовок : Многоголосый закадровый
Язык : Russian
ServiceKind : Complete Main
Default : Нет
Forced : Нет

Аудио #3
Идентификатор : 4
Формат : AC-3
Формат/Информация : Audio Coding 3
Идентификатор кодека : A_AC3
Продолжительность : 1 ч. 43 м.
Вид битрейта : Постоянный
Битрейт : 192 Кбит/сек
Каналы : 2 канала
Расположение каналов : Front: L R
Частота : 48,0 КГц
Частота кадров : 31,250 кадров/сек (1536 SPF)
Битовая глубина : 16 бит
Метод сжатия : С потерями
Размер потока : 142 Мбайт (7%)
Заголовок : Двуголосый закадровый
Язык : Russian
ServiceKind : Complete Main
Default : Нет
Forced : Нет

Аудио #4
Идентификатор : 5
Формат : AC-3
Формат/Информация : Audio Coding 3
Идентификатор кодека : A_AC3
Продолжительность : 1 ч. 43 м.
Вид битрейта : Постоянный
Битрейт : 192 Кбит/сек
Каналы : 2 канала
Расположение каналов : Front: L R
Частота : 48,0 КГц
Частота кадров : 31,250 кадров/сек (1536 SPF)
Битовая глубина : 16 бит
Метод сжатия : С потерями
Размер потока : 142 Мбайт (7%)
Заголовок : Авторский, В. Горчаков
Язык : Russian
ServiceKind : Complete Main
Default : Нет
Forced : Нет

Аудио #5
Идентификатор : 6
Формат : AC-3
Формат/Информация : Audio Coding 3
Идентификатор кодека : A_AC3
Продолжительность : 1 ч. 43 м.
Вид битрейта : Постоянный
Битрейт : 192 Кбит/сек
Каналы : 2 канала
Расположение каналов : Front: L R
Частота : 48,0 КГц
Частота кадров : 31,250 кадров/сек (1536 SPF)
Битовая глубина : 16 бит
Метод сжатия : С потерями
Размер потока : 142 Мбайт (7%)
Заголовок : Оригинал
Язык : English
ServiceKind : Complete Main
Default : Нет
Forced : Нет

Текст #1
Идентификатор : 7
Формат : UTF-8
Идентификатор кодека : S_TEXT/UTF8
Идентификатор кодека/Информация : UTF-8 Plain Text
Продолжительность : 1 ч. 39 м.
Битрейт : 195 бит/сек
ElementCount : 1827
Размер потока : 143 Кбайт (0%)
Заголовок : SRT
Язык : Russian
Default : Нет
Forced : Нет

Текст #2
Идентификатор : 8
Формат : UTF-8
Идентификатор кодека : S_TEXT/UTF8
Идентификатор кодека/Информация : UTF-8 Plain Text
Продолжительность : 1 ч. 38 м.
Битрейт : 80 бит/сек
ElementCount : 1315
Размер потока : 57,7 Кбайт (0%)
Заголовок : SRT
Язык : English
Default : Нет
Forced : Нет




_________________
Проголосуй за трекер Открытый торрент трекер - RUS-MEDIA.ORG

Проголосуй Открытый торрент трекер - RUS-MEDIA.ORG


Вернуться к началу
 Профиль Отправить личное сообщение  
 
   Похожие торренты   Автор   Торрент   Размер 
В этой теме нет новых непрочитанных сообщений. Безумные подмостки / Не шуметь / Noises Off... [комедия, 1992] WEB-DL 1080p, Mvo

salma3

0 | 0

11.14 ГБ

В этой теме нет новых непрочитанных сообщений. Безумные подмостки / Не шуметь! / Noises off! (Питер Богданович / Peter Bogdanovich) [1992г., комедия, HDTVRip-AVC] 2xMVO + DVO + AVO

Alfredovich

32 | 1

3.42 ГБ

В этой теме нет новых непрочитанных сообщений. Принц из Нью-Йорка / Jersey Girl [драма, мелодрама, комедия, 1992] DVDRip, Dub

salma3

48 | 14

1.39 ГБ

В этой теме нет новых непрочитанных сообщений. Безумные новобранцы / Новобранцы сходят с ума / Les bidasses en folie [Комедия, 1971] DVDRip-AVC, Mvo

salma3

57 | 6

1.57 ГБ

В этой теме нет новых непрочитанных сообщений. Безумные новобранцы / Новобранцы сходят с ума / Les bidasses en folie [Комедия, 1971] DVDRip, Mvo

salma3

51 | 5

1.37 ГБ

В этой теме нет новых непрочитанных сообщений. Безумные семейки / Mad Families [комедия, 2017] WEBRip, Mvo

salma3

2351 | 624

1.37 ГБ

В этой теме нет новых непрочитанных сообщений. Безумные похороны / Eulogy [драма, комедия, 2004] WEBRip, Mvo

salma3

22 | 16

1.46 ГБ


Начать новую тему Ответить на тему  [ 1 сообщение ] 




Для Мосгорсуда, Роскомнадзора и рекламодателей:: mosgorsud-torrent[собачка]yandex.ru
cron