Торрент файл
скачать торрент магнет ссылка Добавлен: 01 мар 2018, 12:28
Размер: 2.14 ГБ
Сидеров: 12
Личеров: 3
Статус: (salma3)
Автор

СообщениеДобавлено: 01 мар 2018, 12:28 

Не в сети
Супермодератор
Аватара пользователя
Дата регистрации:
15 фев 2012, 16:44
Возраст: 29
Спасибо: 7377 / 2147
Сообщения: 75752
Год выхода: 2006
Жанр: фантастика, триллер
Режиссер: Тони Скотт

В ролях: Дензел Вашингтон, Пола Пэттон, Вэл Килмер, Джеймс Кэвизел, Адам Голдберг, Элден Хенсон, Эрика Александр, Брюс Гринвуд, Рич Хатчмэн, Мэтт Крэвен

О фильме:
Каждый из нас хотя бы раз в жизни испытывал эффект дежа вю, когда нам вдруг начинает казаться, что мы знакомы с людьми, которых на самом деле раньше никогда не видели, и уже бывали в местах, где на самом деле никогда не были. И, возможно, в такие моменты кому-то приходила в голову мысль, что эти ощущения — не что иное, как предупреждения, посланные нам из прошлого, а может быть, и ключ к познанию будущего.
Агент АТФ Даг Карлин получает возможность совершать путешествия во времени, расследуя обстоятельства взрыва, произошедшего на новоорлеанском пароме. Оказавшись в прошлом, он встречает женщину, которую должны убить, и в итоге влюбляется в нее…



Страна: США, Великобритания
Продолжительность: 02:01:21
Перевод: Профессиональный (полное дублирование)

Файл
Кодек: х264
Качество: HDTVRip-AVC | Open Mate
Видео: 1024x576, 25 fps, ~2033 kbps avg, 0.138 bit/pixel
Аудио: 48 kHz, AC3 6 ch, ~448 kbps
Субтитры: русские SRT

ЦитатаКто-то писал:
К счастью, Эрнст ничего не порезал. Можно смело качать на замену блюрику. По факту продолжительность фильма в блюрэе 1:58, а далее идут титры. Здесь титры обрезаны, но сам фильм не тронут. Идет 1:53. Разница за счет более быстрой прокрутки кадров (25 в секунду против 23,976 у блюра).
Изображение иногда, как замечено выше, обрезано немного справа, но всегда существенно добавлено снизу и сверху. В большинстве сцен обрезки справа тоже нет. По какому принципу формируют фактический кадр для показа для меня загадка. Замечаю скакание рамки в open matte версиях почти во всех фильмах. То самый полный кадр, то обрежут в эпизоде справа или слева путем зума.

Фильм зрелищная динамичная сказка, которую лучше на трезвую голову не смотреть, иначе к концу возникнут вопросы о ряде нестыковок в сюжете. Просто отвлечься от будней, отдохнуть перед экраном и попереживать за смышленого напарника и оживший труп в самый раз!
General
Unique ID : 339750718079225059903190914242373690518 (0xFF999BB0372866316D6F13ED48DB2496)
Complete name : F:FILMSДежа вю_2006_Open Matte_HDTVRIP-AVC_[-=DoMiNo=-].mkv
Format : Matroska
Format version : Version 4 / Version 2
File size : 2.14 GiB
Duration : 2 h 1 min
Overall bit rate : 2 532 kb/s
Movie name : Дежа Вю
Deion : Дежа вю... Внезапно накрывающее с головой чувство, когда кажется, что происходящее с тобой здесь и сейчас уже было. Психологи утверждают, что это лишь шутки мозга, ложная память. А если они ошибаются? А если на самом деле дежа вю – фрагмент информации из альтернативного потока времени? Спецагент Даг Карлин, расследующий жуткий теракт в Новом Орлеане, унесший жизни сотен людей, вскоре узнает это наверняка. Он получает допуск к секретной программе ФБР, позволяющей «отмотать» время на несколько дней назад. А значит, у него есть шанс взять преступника до того, как тот нанесет свой удар. Но из-за возникающих отсюда хронопарадоксов Дагу придется полагаться не на логику, а на не покидающее его ощущение дежа вю – вспомнить то, чего не было, чтобы предотвратить то, что уже случилось...
Writing application : XviD4PSP 7.0.444 DAILY
Writing library : Lavf57.71.100
Copyright : © 2006 Touchstone Pictures
ErrorDetectionType : Per level 1
Attachments : poster.jpg
ACTORS : Val Kilmer, Paula Patton, Bruce Greenwood, Adam Goldberg, James Caviezel, Denzel Washington
DATE : 2006-12-14
DIRECTOR : Tony Scott, Tony Scott
GENRE : Триллеры
HD_VIDEO : 1
IMDB_RATING : 7.0
ITUNEXTC : ru-movie|16+|375|
Language : und
MEDIA_TYPE : 9
ORIGINAL_TITLE : Deja Vu
PRODUCER : Jerry Bruckheimer
RATING : 7,82
WRITER : Bill Marsilii, Terry Rossio

Video
ID : 1
Format : AVC
Format/Info : Advanced Video Codec
Format profile : High@L4.1
Format settings : CABAC / 10 Ref Frames
Format settings, CABAC : Yes
Format settings, ReFrames : 10 frames
Codec ID : V_MPEG4/ISO/AVC
Duration : 2 h 1 min
Bit rate : 2 033 kb/s
Width : 1 024 pixels
Height : 576 pixels
Display aspect ratio : 16:9
Frame rate mode : Constant
Frame rate : 25.000 FPS
Color space : YUV
Chroma subsampling : 4:2:0
Bit depth : 8 bits
Scan type : Progressive
Bits/(Pixel*Frame) : 0.138
Stream size : 1.72 GiB (80%)
Title : RIP_BY_-=DoMiNo=-
Writing library : x264 core 155 r2901M 7d0ff22
Encoding settings : cabac=1 / ref=10 / deblock=1:-3:-3 / analyse=0x3:0x133 / me=umh / subme=10 / psy=1 / psy_rd=1.00:0.10 / mixed_ref=1 / me_range=32 / chroma_me=1 / trellis=2 / 8x8dct=1 / cqm=0 / deadzone=21,11 / fast_pskip=1 / chroma_qp_offset=-3 / threads=6 / lookahead_threads=1 / sliced_threads=0 / nr=0 / decimate=1 / interlaced=0 / bluray_compat=0 / constrained_intra=0 / bframes=9 / b_pyramid=2 / b_adapt=2 / b_bias=0 / direct=3 / weightb=1 / open_gop=0 / weightp=2 / keyint=250 / keyint_min=25 / scenecut=40 / intra_refresh=0 / rc_lookahead=60 / rc=crf / mbtree=1 / crf=20.0 / qcomp=0.60 / qpmin=0 / qpmax=69 / qpstep=4 / ip_ratio=1.40 / aq=1:1.00
Default : Yes
Forced : No
Color range : Limited
Color primaries : BT.709
Transfer characteristics : BT.709
Matrix coefficients : BT.709

Audio
ID : 2
Format : AC-3
Format/Info : Audio Coding 3
Codec ID : A_AC3
Duration : 2 h 1 min
Bit rate mode : Constant
Bit rate : 448 kb/s
Channel(s) : 6 channels
Channel positions : Front: L C R, Side: L R, LFE
Sampling rate : 48.0 kHz
Frame rate : 31.250 FPS (1536 SPF)
Bit depth : 16 bits
Compression mode : Lossy
Stream size : 388 MiB (18%)
Title : DUB
Language : Russian
Service kind : Complete Main
Default : Yes
Forced : No

Text
ID : 3
Format : UTF-8
Codec ID : S_TEXT/UTF8
Codec ID/Info : UTF-8 Plain Text
Language : Russian
Default : Yes
Forced : No


_________________
Проголосуй за трекер Открытый торрент трекер - RUS-MEDIA.ORG

Проголосуй Открытый торрент трекер - RUS-MEDIA.ORG


Вернуться к началу
 Профиль Отправить личное сообщение  
 
   Похожие торренты   Автор   Торрент   Размер 
В этой теме нет новых непрочитанных сообщений. Дежавю / Deja Vu [Фантастика, боевик, триллер, 2006] BDRip-AVC, Dub

salma3

0 | 0

1.09 ГБ

В этой теме нет новых непрочитанных сообщений. Дежавю / Deja Vu [Фантастика, боевик, триллер, 2006] BDRemux 1080p, Dub

salma3

8 | 3

30.54 ГБ

В этой теме нет новых непрочитанных сообщений. Отступники / The Departed [триллер, драма, криминал, 2006] HDTVRip-AVC, Dub [Open Matte]

salma3

0 | 0

2.22 ГБ

В этой теме нет новых непрочитанных сообщений. Годзилла / Godzilla [фантастика, боевик, триллер, 1998] HDTVRip 720p, Dub [Open Matte]

salma3

0 | 0

4.29 ГБ

В этой теме нет новых непрочитанных сообщений. Обливион / Oblivion [фантастика, боевик, триллер, 2013] HDTVRip 720p, Dub [Open Matte]

salma3

0 | 0

4.33 ГБ

В этой теме нет новых непрочитанных сообщений. Бездна / The Abyss [фантастика, триллер, драма, 1989] HDTVRip-AVC, Mvo [Open Matte] [Special Edition]

salma3

19 | 5

2.58 ГБ

В этой теме нет новых непрочитанных сообщений. Тринадцатый этаж / The Thirteenth Floor [фантастика, триллер, детектив, 1999] HDTVRip, Mvo [Open Matte]

salma3

59 | 4

1.45 ГБ


Начать новую тему Ответить на тему  [ 1 сообщение ] 




Для Мосгорсуда, Роскомнадзора и рекламодателей:: mosgorsud-torrent[собачка]yandex.ru
cron