Торрент файл
скачать торрент магнет ссылка Добавлен: 28 фев 2018, 22:12
Размер: 1.6 ГБ
Сидеров: 0
Личеров: 0
Статус: (salma3)
Автор

СообщениеДобавлено: 28 фев 2018, 22:12 

Не в сети
Супермодератор
Аватара пользователя
Дата регистрации:
15 фев 2012, 16:44
Возраст: 28
Спасибо: 7203 / 2147
Сообщения: 65002
Год выхода: 1969
Жанр: вестерн
Режиссер: Серджио Корбуччи

В ролях: Джонни Халлидей, Франсуаза Фабиан, Сильви Феннек, Гастоне Москин, Марио Адорф, Серж Маркан, Анджела Луче, Марио Кастеллани, Ремо Де Анджелис, Риккардо Доменичи

О фильме:
Стрелок Хад приезжает в Блэкстоун отомстить за смерть брата и найти того, кто на самом деле ограбил тамошний банк и спрятал золото, которое до сих пор ищут местные бандиты...



Страна: Италия, Франция, Германия (ФРГ)
Продолжительность: 01:39:01
Перевод: Профессиональный (многоголосый закадровый)

Файл
Качество: DVDRip-AVC
Видео: AVC/H.264, 720x304, ~1930 Kbps
Аудио 1: Русский, AC3, 2 ch, 192 Kbps, 48.0 kHz
Аудио 2: Французский, AC3, 2 ch, 192 Kbps, 48.0 kHz

Общее
Уникальный идентификатор : 227476059583171585817787888177349417106 (0xAB224BA47654E4C1867164D60A685892)
Полное имя : F:DownloadsСпециалист. 1969. NNMCLUB.mkv
Формат : Matroska
Версия формата : Version 4 / Version 2
Размер файла : 1,60 Гбайт
Продолжительность : 1 ч. 39 м.
Общий поток : 2316 Кбит/сек
Дата кодирования : UTC 2018-02-27 12:18:48
Программа кодирования : mkvmerge v7.9.0 ('Birds') 64bit
Библиотека кодирования : libebml v1.3.1 + libmatroska v1.4.2

Видео
Идентификатор : 1
Формат : AVC
Формат/Информация : Advanced Video Codec
Профиль формата : High@L4.1
Настройки формата : CABAC / 12 Ref Frames
Параметр CABAC формата : Да
Параметр RefFrames формата : 12 кадров
Идентификатор кодека : V_MPEG4/ISO/AVC
Продолжительность : 1 ч. 39 м.
Битрейт : 1930 Кбит/сек
Ширина : 720 пикселей
Высота : 304 пикселя
Соотношение сторон : 2,35:1
Режим частоты кадров : Постоянный
Частота кадров : 25,000 кадров/сек
Цветовое пространство : YUV
Субдискретизация насыщенности : 4:2:0
Битовая глубина : 8 бит
Тип развёртки : Прогрессивная
Бит/(Пиксели*Кадры) : 0.353
Размер потока : 1,33 Гбайт (83%)
Заголовок : Gli specialisti
Библиотека кодирования : x264 core 146 r2538 121396c
Настройки программы : cabac=1 / ref=12 / deblock=1:-1:-1 / analyse=0x3:0x113 / me=umh / subme=10 / psy=1 / psy_rd=1.00:0.10 / mixed_ref=1 / me_range=32 / chroma_me=1 / trellis=2 / 8x8dct=1 / cqm=0 / deadzone=21,11 / fast_pskip=0 / chroma_qp_offset=-3 / threads=6 / lookahead_threads=1 / sliced_threads=0 / nr=0 / decimate=0 / interlaced=0 / bluray_compat=0 / constrained_intra=0 / bframes=7 / b_pyramid=2 / b_adapt=2 / b_bias=0 / direct=3 / weightb=1 / open_gop=0 / weightp=2 / keyint=250 / keyint_min=25 / scenecut=40 / intra_refresh=0 / rc_lookahead=60 / rc=2pass / mbtree=1 / bitrate=1930 / ratetol=1.0 / qcomp=0.60 / qpmin=0 / qpmax=69 / qpstep=4 / cplxblur=20.0 / qblur=0.5 / vbv_maxrate=14000 / vbv_bufsize=14000 / nal_hrd=none / filler=0 / ip_ratio=1.40 / aq=1:1.00
Язык : Italian
Default : Да
Forced : Нет

Аудио #1
Идентификатор : 2
Формат : AC-3
Формат/Информация : Audio Coding 3
Идентификатор кодека : A_AC3
Продолжительность : 1 ч. 39 м.
Вид битрейта : Постоянный
Битрейт : 192 Кбит/сек
Каналы : 2 канала
Расположение каналов : Front: L R
Частота : 48,0 КГц
Частота кадров : 31,250 кадров/сек (1536 SPF)
Битовая глубина : 16 бит
Метод сжатия : С потерями
Размер потока : 136 Мбайт (8%)
Заголовок : Многоголосый закадровый
Язык : Russian
ServiceKind : Complete Main
Default : Да
Forced : Нет

Аудио #2
Идентификатор : 3
Формат : AC-3
Формат/Информация : Audio Coding 3
Идентификатор кодека : A_AC3
Продолжительность : 1 ч. 39 м.
Вид битрейта : Постоянный
Битрейт : 192 Кбит/сек
Каналы : 2 канала
Расположение каналов : Front: L R
Частота : 48,0 КГц
Частота кадров : 31,250 кадров/сек (1536 SPF)
Битовая глубина : 16 бит
Метод сжатия : С потерями
Размер потока : 136 Мбайт (8%)
Заголовок : Французский
Язык : French
ServiceKind : Complete Main
Default : Нет
Forced : Нет


_________________
Проголосуй за трекер Открытый торрент трекер - RUS-MEDIA.ORG

Проголосуй Открытый торрент трекер - RUS-MEDIA.ORG


Вернуться к началу
 Профиль Отправить личное сообщение  
 
   Похожие торренты   Автор   Торрент   Размер 
В этой теме нет новых непрочитанных сообщений. Сто винтовок / 100 Rifles [Боевик, вестерн, приключения, 1969] DVDRip, Avo

salma3

1 | 0

1.45 ГБ

В этой теме нет новых непрочитанных сообщений. Непобежденные / The Undefeated [вестерн, 1969] BDRip 720p, Mvo

salma3

0 | 1

2.67 ГБ

В этой теме нет новых непрочитанных сообщений. Сто винтовок / 100 Rifles [приключения, вестерн, военный, 1969] BDRip, Mvo+Dvo

salma3

85 | 29

1.45 ГБ

В этой теме нет новых непрочитанных сообщений. Скажи им, что Билли-Бой здесь / Tell Them Willie Boy Is Here [драма, вестерн, 1969] HDRip, Dvo [НТВ]

salma3

56 | 14

1.45 ГБ

В этой теме нет новых непрочитанных сообщений. Сто винтовок / 100 Rifles [приключения, вестерн, военный, 1969] BDRip 720p, Mvo

salma3

61 | 20

5.34 ГБ

В этой теме нет новых непрочитанных сообщений. Веревка и Кольт / Une Corde, Un Colt [вестерн, 1969] BDRip 720p, Mvo

salma3

0 | 0

8.3 ГБ

В этой теме нет новых непрочитанных сообщений. Сто винтовок / 100 Rifles [приключения, вестерн, военный, 1969] BDRip 1080p, Mvo

salma3

9 | 3

14.04 ГБ


Начать новую тему Ответить на тему  [ 1 сообщение ] 




Для Мосгорсуда, Роскомнадзора и рекламодателей:: mosgorsud-torrent[собачка]yandex.ru
cron