Торрент файл
скачать торрент магнет ссылка Добавлен: 17 апр 2011, 16:49
Размер: 1.9 ГБ
Сидеров: 1
Личеров: 5
Автор

СообщениеДобавлено: 17 апр 2011, 16:49 

Не в сети
Супермодератор
Аватара пользователя
Дата регистрации:
22 май 2010, 11:03
Возраст: 31
Спасибо: 7509 / 13
Сообщения: 49940
Сальвадор / Salvador (Puig Antich)


Перевод: Профессиональный (многоголосый, закадровый), cубтитры: есть

Формат: DVDRip, MPEG, H.264, AAC

Страна: Великобритания, Испания

Режиссер: Мануэль Нуэрга / Manuel Huerga

Жанр: драма

Продолжительность: 02:08:14

Год выпуска: 2006

В ролях: Даниэль Брюль,Тристан Уллоа,Леонардо Сбаралья,Джоэль Джоан,Челсо Бугалло,Мерседес Сампьетро, Беа Сегура,Андреа Рос

Описание:
Испания, начало 1970-х. Сальвадор Пуч Антик — обычный студент из Барселоны, умный и весёлый парень, который любит красивых девушек, посиделки в барах с кружкой пива, хорошую музыку и интересные книги.
Но ему выпало жить в фашистском государстве, и он не готов закрывать глаза и стоять на коленях. Сальвадор и его друзья берут в руки оружие и превращаются в лихих грабителей банков, а все захваченные деньги идут на подпольную борьбу с преступным режимом Франко.


Рейтинг Кинопоиск.RU: 8.172

Рейтинг IMDB: 7.3/10

Видео: 1024x432 (2.35:1) PAL, AVC , 25.000 fps,1591 Kbps, 0.144 (Pixel*Frame)

Аудио: 48 KHz, AAC (L, R)~ 258 Kbps avg


Format: MPEG-4
Format profile: Base Media / Version 2
Codec ID: mp42
File size: 1.90 GiB
Duration: 2h 8mn
Overall bit rate: 2 121 Kbps
Encoded date: UTC 2009-07-22 21:26:26
Tagged date: UTC 2009-07-22 23:57:34

Video
ID: 1
Format: AVC
Format/Info: Advanced Video Codec
Format profile:
Format settings, CABAC: Yes
Format settings, ReFrames: 2 frames
Codec ID: avc1
Codec ID/Info: Advanced Video Coding
Duration: 2h 8mn
Bit rate mode: Variable
Bit rate: 1 591 Kbps
Maximum bit rate: 11.6 Mbps
Width: 1 024 pixels
Height: 432 pixels
Display aspect ratio: 2.35:1
Frame rate mode: Constant
Frame rate: 25.000 fps
Standard: PAL
Color space: YUV
Chroma subsampling: 4:2:0
Bit depth: 8 bits
Scan type: Progressive
Bits/(Pixel*Frame): 0.144
Stream size: 1.43 GiB (75%)
Language: English
Encoded date: UTC 2009-07-22 21:26:26Tagged date: UTC 2009-07-22 23:57:34

Audio #1
ID: 2
Format: AAC
Format/Info: Advanced Audio Codec
Format version: Version 4
Format profile: LC
Format settings, SBR: No
Codec ID: 40
Duration: 2h 8mn
Bit rate mode: Variable
Bit rate: 258 Kbps
Maximum bit rate: 361 Kbps
Channel(s): 2 channels
Channel positions: Front: L R
Sampling rate: 48.0 KHz
Stream size: 237 MiB (12%)
Language: English
Encoded date: UTC 2009-07-22 21:26:26
Tagged date: UTC 2009-07-22 23:57:34

Audio #2
ID: 3
Format: AAC
Format/Info: Advanced Audio Codec
Format version: Version 4
Format profile: LC
Format settings, SBR: No
Codec ID: 40
Duration: 2h 8mn
Bit rate mode: Variable
Bit rate: 258 Kbps
Maximum bit rate: 368 Kbps
Channel(s): 2 channels
Channel positions: Front: L R
Sampling rate: 48.0 KHz
Stream size: 237 MiB (12%)Language: English
Encoded date: UTC 2009-07-22 21:26:26
Tagged date: UTC 2009-07-22 23:57:34

Text
ID: 4
Format: VobSub
Codec ID: subp
Codec ID/Info: The same subtitle format used on DVDs
Duration: 2h 2mn
Bit rate mode: Variable
Bit rate: 3 365 bps
Stream size: 2.96 MiB (0%)
Title: Русский
Language: Russian
Encoded date: UTC 2009-07-22 21:26:27
Tagged date: UTC 2009-07-22 23:57:34











реклама партнёра


Вернуться к началу
 Профиль Отправить личное сообщение  
 
   Похожие торренты   Автор   Торрент   Размер 
В этой теме нет новых непрочитанных сообщений. Сальвадор / Salvador [Триллер, драма, военный, 1986] BDRip 1080p, Mvo

salma3

25 | 9

17.76 ГБ

В этой теме нет новых непрочитанных сообщений. Manuel Is A MILF-O-Maniac 4 / Мануэль - Маньяк Мамочек 4 (Manuel Ferrara, Jules Jordan Video) [2015 г., DVDRip]

max77777

1 | 0

1.54 ГБ

В этой теме нет новых непрочитанных сообщений. Manuel DPs Them All 3 / Мануэль Долбит В Два Конца Их Всех 3 (Manuel Ferrara, Jules Jordan Video) [2015 г., Gonzo, Anal, DP, DAP, 558p, WEB-DL] (Split Scenes) (Abby Lee Brazil, Megan Rain, Roxy Raye, Veronica Avluv)

friizze

0 | 6

2.34 ГБ

В этой теме нет новых непрочитанных сообщений. Блондинка с обнаженной грудью / La blonde aux seins nus / The Blonde with Bare Breasts (Мануэль Прадаль / Manuel Pradal) [2010г., Франция, драма, мелодрама, DVDRip-AVC] MVO

Alfredovich

45 | 8

1.63 ГБ

В этой теме нет новых непрочитанных сообщений. Manuel Is A MILF-O-Maniac 5 / Мануэль - Маньяк Мамочек 5 (2016) WEB-DL

amadei

12 | 7

2.02 ГБ

В этой теме нет новых непрочитанных сообщений. Каннибал / Canibal (Мануэль Мартин Куенка / Manuel Martín Cuenca) [2013г., триллер, BDRip 720p]avo

Alfredovich

176 | 26

5.79 ГБ

В этой теме нет новых непрочитанных сообщений. Manuel Is A Milf-O-Maniac 2 / Manuel Маньяк Мамочек (Jules Jordan Video) (Nina Elle, Mercedes Carrera, Shay Fox, Jessica Jaymes, Manuel Ferrara) [2015 г., Gonzo, Mature, MILF, DVDRip 394p]

friizze

1 | 3

1.28 ГБ


Начать новую тему Ответить на тему  [ 1 сообщение ] 




Для Мосгорсуда, Роскомнадзора и рекламодателей:: mosgorsud-torrent[собачка]yandex.ru