Торрент файл
скачать торрент магнет ссылка Добавлен: 27 фев 2018, 21:56
Размер: 1.24 ГБ
Сидеров: 0
Личеров: 0
Статус: (salma3)
Автор

СообщениеДобавлено: 27 фев 2018, 21:56 

Не в сети
Супермодератор
Аватара пользователя
Дата регистрации:
15 фев 2012, 16:44
Возраст: 29
Спасибо: 7377 / 2147
Сообщения: 75818
Год выхода: 2017
Жанр: комедия, криминал
Режиссер: Дэвид Хайд

В ролях: Майкл Эклунд, Бернисе Лью, Линнеа Моффат, Дж. Адам Браун, Майкл Айронсайд, Андреа дель Кампо, Эйдан Ричи, Стефен МакИнтайр, Аарон Хьюз, Аарон Мерке и другие

О фильме:
Познакомьтесь, это Стегман. Он мертв. И это история о том, как странные и эксцентричные убийцы должны объединиться, чтобы разгадать загадку, которую оставил им после себя Стегман. И как он вообще умудрился умереть на съемках собственного порнофильма?



Страна: Канада, Julijette, Cinicofilms
Продолжительность: 01:24:30
Перевод: Любительский (двухголосый закадровый) | HiWay Grope

Файл
Кодек: XviD
Качество: DVDRip
Видео: 720x400, 23.976 fps, ~1905 kbps avg, 0.28 bit/pixel
Аудио rus: AC3, 48 kHz, 2 ch, 192 Kbps

Реклама: присутствует

Присутствует ненормативная лексика

Семпл

General
Complete name : E:Stegman.Is.Dead.2017.HDRip.HiWayGropeStegman.Is.Dead.2017.HDRip.HiWayGrope.avi
Format : AVI
Format/Info : Audio Video Interleave
File size : 1.24 GiB
Duration : 1h 24mn
Overall bit rate : 2 107 Kbps
Writing application : VirtualDubMod 1.5.10.3 (build 2550/release)
Writing library : VirtualDubMod build 2550/release

Video
ID : 0
Format : MPEG-4 Visual
Format profile : Advanced Simple@L5
Format settings, BVOP : 1
Format settings, QPel : No
Format settings, GMC : No warppoints
Format settings, Matrix : Default (MPEG)
Codec ID : XVID
Codec ID/Hint : XviD
Duration : 1h 24mn
Bit rate : 1 905 Kbps
Width : 720 pixels
Height : 400 pixels
Display aspect ratio : 16:9
Frame rate : 23.976 (23976/1000) fps
Color space : YUV
Chroma subsampling : 4:2:0
Bit depth : 8 bits
Scan type : Progressive
Compression mode : Lossy
Bits/(Pixel*Frame) : 0.276
Stream size : 1.12 GiB (90%)
Writing library : XviD 73

Audio
ID : 1
Format : AC-3
Format/Info : Audio Coding 3
Mode extension : CM (complete main)
Format settings, Endianness : Big
Codec ID : 2000
Duration : 1h 24mn
Bit rate mode : Constant
Bit rate : 192 Kbps
Channel(s) : 2 channels
Channel positions : Front: L R
Sampling rate : 48.0 KHz
Frame rate : 31.250 fps (1536 spf)
Compression mode : Lossy
Stream size : 116 MiB (9%)
Alignment : Split accross interleaves
Interleave, duration : 42 ms (1.00 video frame)
Interleave, preload duration : 500 ms



Релиз от: HiWay Grope


_________________
Проголосуй за трекер Открытый торрент трекер - RUS-MEDIA.ORG

Проголосуй Открытый торрент трекер - RUS-MEDIA.ORG


Вернуться к началу
 Профиль Отправить личное сообщение  
 
   Похожие торренты   Автор   Торрент   Размер 
В этой теме нет новых непрочитанных сообщений. Мертв на 99% / DEAD AT 99% (Серии 1-10 из 10) ( Степан Коршунов) [2017, Драма, боевик, детектив, криминал , HDTVRip 1080i] [DD5.1]

Враг Нароода

0 | 0

18.85 ГБ

В этой теме нет новых непрочитанных сообщений. P.S. Ваш кот мертв / P.S. Your Cat Is Dead! [комедия, 2002] DVDRip, Mvo

salma3

0 | 0

1.57 ГБ

В этой теме нет новых непрочитанных сообщений. Ни жив, ни мертв / Half Past Dead [боевик, триллер, криминал, 2002] BDRip, Dub

salma3

111 | 33

1.46 ГБ

В этой теме нет новых непрочитанных сообщений. Бен Ладен: жив или мёртв / Tere Bin Laden Dead or Alive [Комедия, приключения, 2016] HDTV 1080i, Dvo

salma3

166 | 54

5.13 ГБ

В этой теме нет новых непрочитанных сообщений. Октавио мертв / Octavio Is Dead! [Драма, 2018] WEB-DLRip, Mvo

salma3

0 | 0

1.36 ГБ

В этой теме нет новых непрочитанных сообщений. Октавио мертв / Octavio Is Dead! [Драма, 2018] WEB-DLRip 720p, Mvo

salma3

41 | 13

3.3 ГБ

В этой теме нет новых непрочитанных сообщений. Джейми Маркс мёртв / Jamie Marks Is Dead [драма, 2014] WEBRip, Mvo [GreenРай Studio]

salma3

0 | 0

1.07 ГБ


Начать новую тему Ответить на тему  [ 1 сообщение ] 




Для Мосгорсуда, Роскомнадзора и рекламодателей:: mosgorsud-torrent[собачка]yandex.ru
cron