Торрент файл
скачать торрент магнет ссылка Добавлен: 25 фев 2018, 17:45
Размер: 3.29 ГБ
Сидеров: 7
Личеров: 1
Статус: (salma3)
Автор

СообщениеДобавлено: 25 фев 2018, 17:45 

Не в сети
Супермодератор
Аватара пользователя
Дата регистрации:
15 фев 2012, 16:44
Возраст: 29
Спасибо: 7328 / 2147
Сообщения: 73609
Год выхода: 1987
Жанр: фантастика, боевик
Режиссер: Джон МакТирнан

В ролях: Арнольд Шварценеггер, Карл Уэверз, Элпидия Каррильо, Билл Дьюк, Джесси Вентура, Сонни Лендхэм, Ричард Чавес, Р.Г. Армстронг, Шэйн Блэк, Кевин Питер Холл

О фильме:
Американский вертолет был сбит партизанами в Южной Америке. Оставшийся в живых экипаж находится в плену. Центральное разведывательное управление США бросает свои лучшие силы для освобождения американских граждан. Элитная группа спецназа во главе с Датчем была заброшена в южноамериканские джунгли. Но то, с чем им придётся столкнуться, не поддаётся никакому обьяснению...



Страна: США
Продолжительность: 01:46:43
Перевод: Профессиональный (дублированный) [Blu-ray CEE]

Файл
Кодек: X264
Качество: WEB-DLRip-AVC
Видео: High@L4.1 / ~3842 Mbps / 1024x576 / 23.976 fps
Звук: AC3 / 6ch / 448 kbps
Субтитры: русские, английские


x264 info: frame I:1070 Avg QP:15.38 size:104569
x264 info: frame P:31964 Avg QP:18.83 size: 37046
x264 info: frame B:120495 Avg QP:20.98 size: 15527
x264 info: consecutive B-frames: 1.5% 1.9% 4.9% 26.6% 15.9% 34.4% 5.9% 4.8% 2.0% 1.1% 0.3% 0.4% 0.4%
General
Unique ID : 113487921476767279106641659560117829665 (0x5560FA877C2A435775E76E0C52568021)
Complete name : F:FILMSХищник.1987.Open.Matte.WEB_DLRIP-AVC.[-=DoMiNo=-].mkv
Format : Matroska
Format version : Version 4 / Version 2
File size : 3.29 GiB
Duration : 1 h 46 min
Overall bit rate : 4 408 kb/s
Movie name : Хищник
Deion : Американский вертолет был сбит партизанами в Южной Америке. Оставшийся в живых экипаж находится в плену. Центральное разведывательное управление США бросает свои лучшие силы для освобождения американских граждан.Элитная группа спецназа во главе с Датчем была заброшена в южноамериканские джунгли. Операция шла по плану до тех пор, пока они не наткнулись на поляну с растерзанными телами, опознать которые не представлялось возможным. Только по обрывкам униформы стало понятно, что это и есть экипаж сбитого вертолета.
Writing application : XviD4PSP 7.0.443 DAILY
Writing library : Lavf57.71.100
ErrorDetectionType : Per level 1
Attachments : poster.jpg
ACTORS : Arnold Schwarzenegger, Carl Weathers, Elpidia Carrillo, Bill Duke, Jesse Ventura, Sonny Landham, Richard Chaves, R.G. Armstrong, Shane Black, Kevin Peter Hall, Sven-Ole Thorsen, Steve Boyum, Peter Cullen, Henry Kingi, Jack Verbois
COUNTRY : United States
DATE : 1987-06-11
DIRECTOR : John McTiernan
GENRE : фантастика, боевик, приключения, триллер
HD_VIDEO : 1
ITUNEXTC : mpaa|R|400|
Language : und
MEDIA_TYPE : 9
ORIGINAL_TITLE : Predator
PRODUCER : Joel Silver, Jim Thomas, Lawrence Gordon
PUBLISHER : Twentieth Century Fox Film Corporation, Lawrence Gordon Productions, Davis Entertainment, Silver Pictures, Amercent Films, American Entertainment Partners L.P.
RATING : 7.30

Video
ID : 1
Format : AVC
Format/Info : Advanced Video Codec
Format profile : High@L4.1
Format settings : CABAC / 11 Ref Frames
Format settings, CABAC : Yes
Format settings, ReFrames : 11 frames
Codec ID : V_MPEG4/ISO/AVC
Duration : 1 h 46 min
Bit rate : 3 872 kb/s
Width : 1 024 pixels
Height : 576 pixels
Display aspect ratio : 16:9
Frame rate mode : Constant
Frame rate : 23.976 (24000/1001) FPS
Color space : YUV
Chroma subsampling : 4:2:0
Bit depth : 8 bits
Scan type : Progressive
Bits/(Pixel*Frame) : 0.274
Stream size : 2.89 GiB (88%)
Title : RIP_BY_-=DoMiNo=-
Writing library : x264 core 155 r2901M 7d0ff22
Encoding settings : cabac=1 / ref=11 / deblock=1:-3:-3 / analyse=0x3:0x133 / me=umh / subme=11 / psy=1 / psy_rd=1.00:0.10 / mixed_ref=1 / me_range=32 / chroma_me=1 / trellis=2 / 8x8dct=1 / cqm=0 / deadzone=21,11 / fast_pskip=1 / chroma_qp_offset=-3 / threads=6 / lookahead_threads=1 / sliced_threads=0 / nr=0 / decimate=1 / interlaced=0 / bluray_compat=0 / constrained_intra=0 / bframes=12 / b_pyramid=2 / b_adapt=2 / b_bias=0 / direct=3 / weightb=1 / open_gop=0 / weightp=2 / keyint=240 / keyint_min=24 / scenecut=40 / intra_refresh=0 / rc_lookahead=60 / rc=crf / mbtree=1 / crf=18.0 / qcomp=0.60 / qpmin=0 / qpmax=69 / qpstep=4 / ip_ratio=1.40 / aq=1:1.00
Language : English
Default : Yes
Forced : Yes
Color range : Limited
Color primaries : BT.709
Transfer characteristics : BT.709
Matrix coefficients : BT.709

Audio
ID : 2
Format : AC-3
Format/Info : Audio Coding 3
Codec ID : A_AC3
Duration : 1 h 46 min
Bit rate mode : Constant
Bit rate : 448 kb/s
Channel(s) : 6 channels
Channel positions : Front: L C R, Side: L R, LFE
Sampling rate : 48.0 kHz
Frame rate : 31.250 FPS (1536 SPF)
Bit depth : 16 bits
Compression mode : Lossy
Stream size : 342 MiB (10%)
Title : DUB - CPIG
Language : Russian
Service kind : Complete Main
Default : Yes
Forced : Yes

Text #1
ID : 3
Format : UTF-8
Codec ID : S_TEXT/UTF8
Codec ID/Info : UTF-8 Plain Text
Title : Русский Full
Language : Russian
Default : Yes
Forced : No

Text #2
ID : 4
Format : UTF-8
Codec ID : S_TEXT/UTF8
Codec ID/Info : UTF-8 Plain Text
Title : English Full
Language : English
Default : No
Forced : No




_________________
Проголосуй за трекер Открытый торрент трекер - RUS-MEDIA.ORG

Проголосуй Открытый торрент трекер - RUS-MEDIA.ORG


Вернуться к началу
 Профиль Отправить личное сообщение  
 
   Похожие торренты   Автор   Торрент   Размер 
В этой теме нет новых непрочитанных сообщений. Хищник / Predator [фантастика, боевик, 1987] WEB-DLRip-AVC, Dub [Open Matte]

salma3

17 | 0

2.36 ГБ

В этой теме нет новых непрочитанных сообщений. Хищник / Predator [фантастика, боевик, 1987] WEB-DL 1080p, Dub [Open Matte]

salma3

61 | 21

18.06 ГБ

В этой теме нет новых непрочитанных сообщений. Чужой против Хищника / Alien vs. Predator [Фантастика, боевик, приключения, 2004] WEB-DLRip-AVC, Dub [Open Matte]

salma3

0 | 0

3.61 ГБ

В этой теме нет новых непрочитанных сообщений. Чужой против Хищника / AVP: Alien vs. Predator [Фантастика, боевик, триллер, 2004] WEB-DLRip-AVC, Dub [Open Matte] [Theatrical Cut]

salma3

0 | 0

745.69 МБ

В этой теме нет новых непрочитанных сообщений. Хищник / Predator [фантастика, боевик, приключения, 1987] BDRip-AVC, Dub+Mvo+Avo+Sub

salma3

103 | 58

2.18 ГБ

В этой теме нет новых непрочитанных сообщений. Хищник / Predator [фантастика, боевик, триллер, 1987] BDRip 1080p, Dub+Mvo+Dvo+Avo+Sub

salma3

65 | 24

12.38 ГБ

В этой теме нет новых непрочитанных сообщений. Хищник / Predator [Фантастика, боевик, приключения, 1987] BDRemux 1080p, Dub

salma3

0 | 0

32.53 ГБ


Начать новую тему Ответить на тему  [ 1 сообщение ] 




Для Мосгорсуда, Роскомнадзора и рекламодателей:: mosgorsud-torrent[собачка]yandex.ru
cron