Торрент файл
скачать торрент магнет ссылка Добавлен: 25 фев 2018, 15:17
Размер: 746.89 МБ
Сидеров: 241
Личеров: 89
Статус: (salma3)
Автор

СообщениеДобавлено: 25 фев 2018, 15:17 

В сети
Супермодератор
Аватара пользователя
Дата регистрации:
15 фев 2012, 16:44
Возраст: 29
Спасибо: 7377 / 2147
Сообщения: 75974
Год выхода: 2015
Жанр: Боевик, комедия, криминал
Режиссёр: Пол Фиг

В ролях: Мелисса МакКарти, Джейсон Стэйтем, Джуд Лоу, Роуз Бирн, Миранда Харт, Бобби Каннавейл, Морена Баккарин, Раад Рави, Джессика Чаффин, Сэм Ричардсон, Кэти Дипполд, Джейм Пачеко, Ромейн Апельбаум, Ричард Брэйк, Стив Баннос, Карлос Понсе, Уилл Юн Ли, Майкл МакДональд, Адам Рэй, Лукач Бичкеи

О фильме :
Сьюзан Купер всю свою жизнь мечтала стать секретным агентом и даже устроилась работать в ЦРУ. Однако, дальше сотрудника самой низкой ступени ей так и не удалось продвинуться. Понимая, что осуществить свою мечту практически невозможно, она все-таки продолжает надеяться на лучшее и с нетерпением ожидает своего шанса. И вскоре судьба дарит ей такую возможность. Лучший агент проваливает секретное задание, в ходе которого он должен был выяснить местонахождение ядерной бомбы, но, совершенно случайно, застрелил единственного человека, владеющего этой информацией. Через некоторое время службе разведки становится известно, что Рейна Боянова знает, где находится бомба, но она также знает в лицо всех секретных агентов ЦРУ. Теперь у руководства не остается другого выбора, как воспользоваться услугами Сьюзан Купер, но сможет ли она справиться со столь сложной миссией?



Страна: США
Продолжительность: 02:10:23
Перевод: Профессиональный (полное дублирование)

Файл
Формат: MKV
Качество: HDRip-AVC
Видео: MPEG-4 AVC, 736x308, ~ 722 Кбит/с
Аудио: AAC-LC, 2 ch, ~ 76 Кбит/с
Субтитры: Русские, украинские, английские

Общее
Уникальный идентификатор : 218783275809820507019814353593908256568 (0xA49820500A755434AB1A03F65DC2DF38)
Полное имя : D:MOVIESSpy.2015.ExKinoRay.mkv
Формат : Matroska
Версия формата : Version 4 / Version 2
Размер файла : 747 Мбайт
Продолжительность : 2 ч. 10 м.
Общий поток : 801 Кбит/сек
Дата кодирования : UTC 2018-02-25 10:35:22
Программа кодирования : mkvmerge v15.0.0 ('Duel with the Devil') 64-bit
Библиотека кодирования : libebml v1.3.5 + libmatroska v1.4.5

Видео
Идентификатор : 1
Формат : AVC
Формат/Информация : Advanced Video Codec
Профиль формата : High@L4.1
Параметр CABAC формата : Да
Параметр RefFrames формата : 10 кадров
Идентификатор кодека : V_MPEG4/ISO/AVC
Продолжительность : 2 ч. 10 м.
Битрейт : 722 Кбит/сек
Ширина : 736 пикселей
Высота : 308 пикселей
Соотношение сторон : 2,40:1
Режим частоты кадров : Постоянный
Частота кадров : 23,976 (24000/1001) кадра/сек
Цветовое пространство : YUV
Субдискретизация насыщенности : 4:2:0
Битовая глубина : 8 бит
Тип развёртки : Прогрессивная
Бит/(Пиксели*Кадры) : 0.133
Размер потока : 673 Мбайт (90%)
Библиотека кодирования : x264 core 152 r2851 ba24899
Настройки программы : cabac=1 / ref=10 / deblock=1:-3:-3 / analyse=0x3:0x133 / me=umh / subme=11 / psy=1 / psy_rd=1.00:0.12 / mixed_ref=1 / me_range=32 / chroma_me=1 / trellis=2 / 8x8dct=1 / cqm=0 / deadzone=21,11 / fast_pskip=0 / chroma_qp_offset=-3 / threads=6 / lookahead_threads=1 / sliced_threads=0 / nr=0 / decimate=0 / interlaced=0 / bluray_compat=0 / constrained_intra=0 / bframes=10 / b_pyramid=2 / b_adapt=2 / b_bias=0 / direct=3 / weightb=1 / open_gop=0 / weightp=2 / keyint=240 / keyint_min=23 / scenecut=40 / intra_refresh=0 / rc_lookahead=40 / rc=2pass / mbtree=0 / bitrate=722 / ratetol=1.0 / qcomp=0.60 / qpmin=0 / qpmax=69 / qpstep=4 / cplxblur=20.0 / qblur=0.5 / vbv_maxrate=50000 / vbv_bufsize=62500 / nal_hrd=none / filler=0 / ip_ratio=1.40 / pb_ratio=1.30 / aq=1:1.00
Default : Да
Forced : Нет

Аудио
Идентификатор : 2
Формат : AAC
Формат/Информация : Advanced Audio Codec
Профиль формата : LC
Идентификатор кодека : A_AAC
Продолжительность : 2 ч. 10 м.
Битрейт : 76,0 Кбит/сек
Каналы : 2 канала
Расположение каналов : Front: L R
Частота : 48,0 КГц
Частота кадров : 46,875 кадров/сек (1024 SPF)
Метод сжатия : С потерями
Задержка видео : 9 мс.
Размер потока : 70,9 Мбайт (9%)
Default : Да
Forced : Нет

Текст #1
Идентификатор : 3
Формат : UTF-8
Идентификатор кодека : S_TEXT/UTF8
Идентификатор кодека/Информация : UTF-8 Plain Text
Продолжительность : 2 ч. 9 м.
Битрейт : 0 бит/сек
ElementCount : 16
Размер потока : 566 байт (0%)
Заголовок : Forced
Язык : Russian
Default : Да
Forced : Да

Текст #2
Идентификатор : 4
Формат : UTF-8
Идентификатор кодека : S_TEXT/UTF8
Идентификатор кодека/Информация : UTF-8 Plain Text
Продолжительность : 2 ч. 9 м.
Битрейт : 124 бит/сек
ElementCount : 2418
Размер потока : 118 Кбайт (0%)
Заголовок : Full
Язык : Russian
Default : Нет
Forced : Нет

Текст #3
Идентификатор : 5
Формат : UTF-8
Идентификатор кодека : S_TEXT/UTF8
Идентификатор кодека/Информация : UTF-8 Plain Text
Продолжительность : 2 ч. 9 м.
Битрейт : 134 бит/сек
ElementCount : 2421
Размер потока : 127 Кбайт (0%)
Заголовок : Full
Язык : Ukrainian
Default : Нет
Forced : Нет

Текст #4
Идентификатор : 6
Формат : UTF-8
Идентификатор кодека : S_TEXT/UTF8
Идентификатор кодека/Информация : UTF-8 Plain Text
Продолжительность : 2 ч. 8 м.
Битрейт : 82 бит/сек
ElementCount : 2406
Размер потока : 77,6 Кбайт (0%)
Заголовок : Full
Язык : English
Default : Нет
Forced : Нет

Меню
00:00:00.000 : en:Chapter 01
00:03:38.592 : en:Chapter 02
00:07:46.132 : en:Chapter 03
00:10:08.691 : en:Chapter 04
00:14:11.140 : en:Chapter 05
00:15:42.857 : en:Chapter 06
00:20:54.377 : en:Chapter 07
00:23:25.862 : en:Chapter 08
00:27:59.928 : en:Chapter 09
00:31:11.076 : en:Chapter 10
00:34:24.060 : en:Chapter 11
00:39:30.576 : en:Chapter 12
00:45:24.846 : en:Chapter 13
00:47:42.317 : en:Chapter 14
00:50:48.127 : en:Chapter 15
00:55:26.654 : en:Chapter 16
00:58:28.545 : en:Chapter 17
01:03:35.728 : en:Chapter 18
01:08:58.509 : en:Chapter 19
01:11:00.130 : en:Chapter 20
01:16:25.997 : en:Chapter 21
01:22:32.905 : en:Chapter 22
01:28:07.323 : en:Chapter 23
01:33:11.417 : en:Chapter 24
01:37:02.858 : en:Chapter 25
01:40:18.427 : en:Chapter 26
01:47:27.189 : en:Chapter 27
01:50:45.054 : en:Chapter 28
01:55:31.381 : en:Chapter 29
01:59:40.463 : en:Chapter 30
02:02:28.340 : en:Chapter 31
02:05:03.662 : en:Chapter 32
02:10:22.689 : en:Chapter 33



Релиз от:


_________________
Проголосуй за трекер Открытый торрент трекер - RUS-MEDIA.ORG

Проголосуй Открытый торрент трекер - RUS-MEDIA.ORG


Вернуться к началу
 Профиль Отправить личное сообщение  
 
   Похожие торренты   Автор   Торрент   Размер 
В этой теме нет новых непрочитанных сообщений. Шпион / Spy [боевик, комедия, криминал, 2015] HDRip, Dub [Расширенная версия]

salma3

127 | 24

1.45 ГБ

В этой теме нет новых непрочитанных сообщений. Случайный шпион / The Accidental Spy / Dak miu mai shing [боевик, триллер, комедия, 2000] HDRip, Avo [Гаврилов]

salma3

18 | 2

1.46 ГБ

В этой теме нет новых непрочитанных сообщений. Случайный шпион / Dak miu mai shing [боевик, комедия, 2001] BDRip-AVC, Mvo

salma3

27 | 3

2.26 ГБ

В этой теме нет новых непрочитанных сообщений. Случайный шпион / Dak miu mai shing [боевик, комедия, 2001] BDRip 720р, Mvo+Sub

salma3

42 | 9

3.38 ГБ

В этой теме нет новых непрочитанных сообщений. Обмануть всех / Я-шпион / I Spy [Боевик, Комедия, Приключения, 2002] WEB-DLRip-AVC, Dub+Mvo

salma3

89 | 10

2.81 ГБ

В этой теме нет новых непрочитанных сообщений. Обмануть всех / Я - Шпион / I Spy [Боевик, триллер, комедия, 2002] HDTV 1080i, Dub

salma3

105 | 51

8.14 ГБ

В этой теме нет новых непрочитанных сообщений. Случайный шпион / Dak miu mai shing [Боевик, триллер, комедия, 2001] BDRip 1080p, Mvo

salma3

0 | 8

7.77 ГБ


Начать новую тему Ответить на тему  [ 1 сообщение ] 




Для Мосгорсуда, Роскомнадзора и рекламодателей:: mosgorsud-torrent[собачка]yandex.ru
cron