Оценка торрента
5 0%  0%  [ 0 ]
4 0%  0%  [ 0 ]
3 0%  0%  [ 0 ]
2 0%  0%  [ 0 ]
1 0%  0%  [ 0 ]
Всего голосов : 0
Торрент файл
скачать торрент магнет ссылка Добавлен: 14 ноя 2010, 00:30
Размер: 2.52 ГБ
Сидеров: 0
Личеров: 3
Статус: (Sk@zo4ниK)
Автор

СообщениеДобавлено: 14 ноя 2010, 00:31 

Не в сети
Супермодератор
Дата регистрации:
05 май 2010, 08:24
Спасибо: 127 / 2
Сообщения: 323
28 дней спустя
28 Days Later...
«Твои дни сочтены!»


Страна: Великобритания
Жанр: ужасы, фантастика, триллер
Год выпуска: 2002
Продолжительность: 1:53:07
Перевод: Профессиональный (дублированный)
Cубтитры: нет

Режиссер: Дэнни Бойл / Danny Boyle
В ролях: Алекс Палмер, Бинду Де Стоппани, Юкка Хилтунен, Дэвид Шнайдер, Киллиан Мёрфи, Тоби Седжвик, Наоми Харрис, Ной Хантли, Крис Данн

Описание: Группа «зеленых» экстремистов вторгается в центр исследования приматов и выпускает из секретной научной лаборатории обезьяну, зараженную вирусом неудержимой агрессии. Смертельный вирус , передающийся через кровь за считанные секунды, приводит к мгновенному заражению, и, соприкасаясь с любым живым существом, превращает его в кровожадного монстра.
Через 4 недели вся Англия охвачена страшной эпидемией: многие люди эвакуируются, другие ищут безопасные места, в надежде спастись. Те, кому посчастливилось не заразиться, вместе с группой военных прячутся в заброшенном доме. Вместе им предстоит разобраться в ситуации и попытаться ее исправить…

Качество: BDRip-AVC
Формат: MKV
Видео кодек: H.264
Аудио кодек: AC3
Видео: 960 х 512, x264, 23.976 fps, 2037 Kbps
Аудио: 320 kbps 6ch 48000khz AC3(Гоблин)
Аудио: 384 kbps 6ch 48000khz AC3(Дубляж)
Аудио: 448 kbps 6ch 48000khz AC3(оригинал) - отдельно
Субтитры:русские , английские
General
Complete name : J:\28 dney spustia.chopper887\28 dney spustia.chopper887.mkv
Format : Matroska
File size : 2.17 GiB
Duration : 1h 53mn
Overall bit rate : 2 743 Kbps
Movie name : 28 dney spustia.chopper887
Encoded date : UTC 2010-10-29 13:52:37
Writing application : mkvmerge v3.0.0 ('Hang up your Hang-Ups') built on Dec 12 2009 15:20:35
Writing library : libebml v0.7.9 + libmatroska v0.8.1
Video
ID : 1
Format : AVC
Format/Info : Advanced Video Codec
Format profile : High@L4.1
Format settings, CABAC : Yes
Format settings, ReFrames : 10 frames
Muxing mode : Container profile=Unknown@4.1
Codec ID : V_MPEG4/ISO/AVC
Duration : 1h 53mn
Bit rate : 1 984 Kbps
Nominal bit rate : 2 037 Kbps
Width : 960 pixels
Height : 512 pixels
Display aspect ratio : 1.875
Frame rate : 23.976 fps
Resolution : 24 bits
Colorimetry : 4:2:0
Scan type : Progressive
Bits/(Pixel*Frame) : 0.168
Stream size : 1.57 GiB (72%)
Title : 28 dney spustia.chopper887
Writing library : x264 core 104 r1713 c276662
Encoding settings : cabac=1 / ref=10 / deblock=1:-2:-1 / analyse=0x3:0x133 / me=umh / subme=9 / psy=1 / psy_rd=1.00:0.10 / mixed_ref=1 / me_range=32 / chroma_me=1 / trellis=2 / 8x8dct=1 / cqm=0 / deadzone=21,11 / fast_pskip=0 / chroma_qp_offset=-3 / threads=3 / sliced_threads=0 / nr=0 / decimate=1 / interlaced=0 / constrained_intra=0 / bframes=8 / b_pyramid=2 / b_adapt=2 / b_bias=0 / direct=3 / weightb=1 / open_gop=0 / weightp=2 / keyint=250 / keyint_min=23 / scenecut=40 / intra_refresh=0 / rc_lookahead=80 / rc=2pass / mbtree=1 / bitrate=2037 / ratetol=1.0 / qcomp=0.70 / qpmin=10 / qpmax=51 / qpstep=4 / cplxblur=20.0 / qblur=0.5 / ip_ratio=1.40 / aq=1:1.00
Language : English
Audio #1
ID : 2
Format : AC-3
Format/Info : Audio Coding 3
Codec ID : A_AC3
Duration : 1h 53mn
Bit rate mode : Constant
Bit rate : 320 Kbps
Channel(s) : 6 channels
Channel positions : Front: L C R, Surround: L R, LFE
Sampling rate : 48.0 KHz
Stream size : 259 MiB (12%)
Title : Гоблин
Audio #2
ID : 3
Format : AC-3
Format/Info : Audio Coding 3
Codec ID : A_AC3
Duration : 1h 53mn
Bit rate mode : Constant
Bit rate : 384 Kbps
Channel(s) : 6 channels
Channel positions : Front: L C R, Surround: L R, LFE
Sampling rate : 48.0 KHz
Stream size : 311 MiB (14%)
Text #1
ID : 4
Format : UTF-8
Codec ID : S_TEXT/UTF8
Codec ID/Info : UTF-8 Plain Text
Title : Русские
Text #2
ID : 5
Format : UTF-8
Codec ID : S_TEXT/UTF8
Codec ID/Info : UTF-8 Plain Text
Title : Английские




реклама партнёра


Вернуться к началу
 Профиль Отправить личное сообщение  
 
   Похожие торренты   Автор   Торрент   Размер 
В этой теме нет новых непрочитанных сообщений. 28 дней спустя / 28 Days Later [ужасы, фантастика, триллер, 2002] BDRip, Dub [Лицензия]

salma3

24 | 2

1.46 ГБ

В этой теме нет новых непрочитанных сообщений. 28 недель спустя / 28 Weeks Later [ужасы, фантастика, триллер, 2007] BDRip, Dub [Лицензия]

salma3

12 | 4

1.46 ГБ

В этой теме нет новых непрочитанных сообщений. Куб 2: Гиперкуб / Cube 2: Hypercube [ужасы, фантастика, триллер, драма, 2002] BDRip 1080p, Mvo+Sub

salma3

78 | 30

8.57 ГБ

В этой теме нет новых непрочитанных сообщений. 48 недель спустя / Last Rites / 48 Weeks Later [Ужасы, фантастика, боевик, 2006] DVDRip, Mvo

salma3

104 | 5

1.37 ГБ

В этой теме нет новых непрочитанных сообщений. Питоны 2 / Python 2 [ужасы, фантастика, боевик, триллер, 2002] DVDRip, Dvo

salma3

11 | 2

1.45 ГБ

В этой теме нет новых непрочитанных сообщений. Антитело / Antibody [Триллер, ужасы, фантастика, боевик, 2002] DVDRip, Mvo

salma3

53 | 5

1.46 ГБ

В этой теме нет новых непрочитанных сообщений. Тьма / Darkness [Ужасы, триллер, детектив, 2002] BDRip 720р, Dub

salma3

27 | 3

4.12 ГБ


Начать новую тему Ответить на тему  [ 1 сообщение ] 




Для Мосгорсуда, Роскомнадзора и рекламодателей:: mosgorsud-torrent[собачка]yandex.ru