Торрент файл
скачать торрент магнет ссылка Добавлен: 20 фев 2018, 12:23
Размер: 746.81 МБ
Сидеров: 36
Личеров: 7
Статус: (salma3)
Автор

СообщениеДобавлено: 20 фев 2018, 12:23 

Не в сети
Супермодератор
Аватара пользователя
Дата регистрации:
15 фев 2012, 16:44
Возраст: 28
Спасибо: 7205 / 2147
Сообщения: 65334
Год выхода: 1998
Жанр: Ужасы, фантастика, триллер
Режиссер: Роберт Родригес

В ролях: Джош Хартнетт, Элайджа Вуд, Джордана Брюстер, Клеа ДюВалл, Лора Харрис, Шон Хэтоси, Сальма Хайек, Фамке Янссен, Пайпер Лори, Кристофер МакДональд

О фильме :
Колледж Хэррингтон давно утратил свою первозданность. Его обшарпанные коридоры ежедневно заполняет будущее Америки — одиночки и лидеры, пижоны и наркоманы, умники и кретины. Подобно подросткам везде и всюду, они ведут постоянную борьбу друг с другом. Но однажды студенты делают ужасающее открытие: их преподаватели — пришельцы с другой планеты! Столкнувшись с вызовом, который они даже не могли себе вообразить, бывшие враги вынуждены объединиться, чтобы спастись от инопланетного вторжения…



Страна: США
Продолжительность: 01:44:31
Перевод: Профессиональный (многоголосый, закадровый) [СТС]

Файл
Формат: MKV
Качество: BDRip-AVC
Видео: MPEG-4 AVC, 736x396, ~ 921 Кбит/с
Аудио: AAC-LC, 2 ch, ~ 76 Кбит/с
Субтитры: Русские, английские

Общее
Уникальный идентификатор : 215884201301533808500227964760131322924 (0xA269C8E762E3DEC192526868AA3F442C)
Полное имя : D:MOVIESThe Faculty.1998.ExKinoRay.mkv
Формат : Matroska
Версия формата : Version 4 / Version 2
Размер файла : 747 Мбайт
Продолжительность : 1 ч. 44 м.
Общий поток : 999 Кбит/сек
Дата кодирования : UTC 2018-02-19 21:42:24
Программа кодирования : mkvmerge v15.0.0 ('Duel with the Devil') 64-bit
Библиотека кодирования : libebml v1.3.5 + libmatroska v1.4.5

Видео
Идентификатор : 1
Формат : AVC
Формат/Информация : Advanced Video Codec
Профиль формата : High@L4.1
Параметр CABAC формата : Да
Параметр RefFrames формата : 10 кадров
Идентификатор кодека : V_MPEG4/ISO/AVC
Продолжительность : 1 ч. 44 м.
Битрейт : 921 Кбит/сек
Ширина : 736 пикселей
Высота : 396 пикселей
Соотношение сторон : 1,85:1
Режим частоты кадров : Постоянный
Частота кадров : 23,976 (24000/1001) кадра/сек
Цветовое пространство : YUV
Субдискретизация насыщенности : 4:2:0
Битовая глубина : 8 бит
Тип развёртки : Прогрессивная
Бит/(Пиксели*Кадры) : 0.132
Размер потока : 688 Мбайт (92%)
Библиотека кодирования : x264 core 152 r2851 ba24899
Настройки программы : cabac=1 / ref=10 / deblock=1:-3:-3 / analyse=0x3:0x133 / me=umh / subme=11 / psy=1 / psy_rd=1.00:0.09 / mixed_ref=1 / me_range=32 / chroma_me=1 / trellis=2 / 8x8dct=1 / cqm=0 / deadzone=21,11 / fast_pskip=0 / chroma_qp_offset=-3 / threads=6 / lookahead_threads=1 / sliced_threads=0 / nr=0 / decimate=0 / interlaced=0 / bluray_compat=0 / constrained_intra=0 / bframes=10 / b_pyramid=2 / b_adapt=2 / b_bias=0 / direct=3 / weightb=1 / open_gop=0 / weightp=2 / keyint=240 / keyint_min=23 / scenecut=40 / intra_refresh=0 / rc_lookahead=40 / rc=2pass / mbtree=0 / bitrate=921 / ratetol=1.0 / qcomp=0.60 / qpmin=0 / qpmax=69 / qpstep=4 / cplxblur=20.0 / qblur=0.5 / vbv_maxrate=50000 / vbv_bufsize=62500 / nal_hrd=none / filler=0 / ip_ratio=1.40 / pb_ratio=1.30 / aq=1:1.00
Default : Да
Forced : Нет

Аудио
Идентификатор : 2
Формат : AAC
Формат/Информация : Advanced Audio Codec
Профиль формата : LC
Идентификатор кодека : A_AAC
Продолжительность : 1 ч. 44 м.
Битрейт : 76,0 Кбит/сек
Каналы : 2 канала
Расположение каналов : Front: L R
Частота : 48,0 КГц
Частота кадров : 46,875 кадров/сек (1024 SPF)
Метод сжатия : С потерями
Задержка видео : 9 мс.
Размер потока : 56,7 Мбайт (8%)
Default : Да
Forced : Нет

Текст #1
Идентификатор : 3
Формат : UTF-8
Идентификатор кодека : S_TEXT/UTF8
Идентификатор кодека/Информация : UTF-8 Plain Text
Продолжительность : 1 ч. 38 м.
Битрейт : 56 бит/сек
ElementCount : 1121
Размер потока : 40,6 Кбайт (0%)
Язык : English
Default : Нет
Forced : Нет

Текст #2
Идентификатор : 4
Формат : UTF-8
Идентификатор кодека : S_TEXT/UTF8
Идентификатор кодека/Информация : UTF-8 Plain Text
Продолжительность : 1 ч. 38 м.
Битрейт : 79 бит/сек
ElementCount : 918
Размер потока : 57,4 Кбайт (0%)
Язык : Russian
Default : Нет
Forced : Нет



Релиз от:


_________________
Проголосуй за трекер Открытый торрент трекер - RUS-MEDIA.ORG

Проголосуй Открытый торрент трекер - RUS-MEDIA.ORG


Вернуться к началу
 Профиль Отправить личное сообщение  
 
   Похожие торренты   Автор   Торрент   Размер 
В этой теме нет новых непрочитанных сообщений. Факультет / The Faculty [ужасы, фантастика, триллер, 1998] BDRip 720p, Mvo+Dvo+Avo+Sub

salma3

59 | 25

7.96 ГБ

В этой теме нет новых непрочитанных сообщений. Особь 2 / Species II [Ужасы, фантастика, 1998] BDRip, Mvo+Avo

salma3

95 | 20

1.46 ГБ

В этой теме нет новых непрочитанных сообщений. Подъем с глубины / Deep Rising [ужасы, фантастика, боевик, приключения, 1998] BDRip 1080p, Dvo

salma3

24 | 2

6.75 ГБ

В этой теме нет новых непрочитанных сообщений. Подъем с глубины / Deep Rising [ужасы, фантастика, боевик, приключения, 1998] BDRip 720p, Mvo+Dvo+Avo+Sub

salma3

48 | 42

7.46 ГБ

В этой теме нет новых непрочитанных сообщений. Пророчество 2 / The Prophecy II [ужасы, фэнтези, триллер, 1998] BDRip-AVC, Mvo

salma3

45 | 33

2.18 ГБ

В этой теме нет новых непрочитанных сообщений. Психо / Psycho [ужасы, триллер, детектив, 1998] BDRip 1080p, Mvo

salma3

16 | 8

7.12 ГБ

В этой теме нет новых непрочитанных сообщений. Годзилла / Godzilla [Фантастика, боевик, триллер, 1998] BDRip-AVC, Dub

salma3

0 | 0

1.08 ГБ


Начать новую тему Ответить на тему  [ 1 сообщение ] 




Для Мосгорсуда, Роскомнадзора и рекламодателей:: mosgorsud-torrent[собачка]yandex.ru
cron