Торрент файл
скачать торрент магнет ссылка Добавлен: 17 фев 2018, 12:17
Размер: 745.81 МБ
Сидеров: 80
Личеров: 17
Статус: (salma3)
Автор

СообщениеДобавлено: 17 фев 2018, 12:17 

Не в сети
Супермодератор
Аватара пользователя
Дата регистрации:
15 фев 2012, 16:44
Возраст: 28
Спасибо: 7203 / 2147
Сообщения: 65002
Год выпуска: 2000
Жанр: Фантастика, боевик, триллер
Режиссер: Роджер Споттисвуд

В ролях: Арнольд Шварценеггер, Майкл Рапапорт, Тони Голдуин, Майкл Рукер, Сара Уайнтер, Венди Крюсон, Родни Роулэнд, Терри Крюс, Кен Поуг, Колин Каннингэм, Роберт Дювалл, Ванда Кэннон, Тейлор Энн Рейд, Дженнифер Гэрис, Дон МакМанус, Стив Бачич, Кристофер Лоуфорд, Марк Брэндон,

О фильме :
Клонирование - хорошо это или нет? Человечество так и не определилось. Но в будущем закон о запрете выращивания человеческих клонов был принят безоговорочно. В честь дня сотворения человека Богом, его назвали "Законом Шестого Дня". Говорят, законы для того и существуют, чтобы нарушать их. И эта история не стала исключением. Всё началось тем поздним вечером, когда пилот вертолёта Адам Гибсон наконец оказался на пороге своего дома и увидел через окно, что он уже шумно празднует свой день рождения в кругу близких и друзей. Но попытавшись выяснить, что за двойник у него объявился, он оказался в центре заговора сторонников клонирования...



Страна: США
Продолжительность: 02:03:37
Перевод: Профессиональный (полное дублирование)

Файл
Формат: MKV
Качество: HDRip-AVC
Видео: MPEG-4 AVC, 768x320, ~ 766 Кбит/с
Аудио: AAC-LC, 2 ch, ~ 76 Кбит/с
Субтитры: Русские, английские

Общее
Уникальный идентификатор : 206366479986432334528838770340271345349 (0x9B40BD035995398A8E587FEEE701CEC5)
Полное имя : D:MOVIESShestoy.denj.2000.ExKinoRay.mkv
Формат : Matroska
Версия формата : Version 4 / Version 2
Размер файла : 746 Мбайт
Продолжительность : 2 ч. 3 м.
Общий поток : 844 Кбит/сек
Дата кодирования : UTC 2018-02-17 05:30:53
Программа кодирования : mkvmerge v15.0.0 ('Duel with the Devil') 64-bit
Библиотека кодирования : libebml v1.3.5 + libmatroska v1.4.5

Видео
Идентификатор : 1
Формат : AVC
Формат/Информация : Advanced Video Codec
Профиль формата : High@L4.1
Параметр CABAC формата : Да
Параметр RefFrames формата : 10 кадров
Идентификатор кодека : V_MPEG4/ISO/AVC
Продолжительность : 2 ч. 3 м.
Битрейт : 766 Кбит/сек
Ширина : 768 пикселей
Высота : 320 пикселей
Соотношение сторон : 2,40:1
Режим частоты кадров : Постоянный
Частота кадров : 23,976 (24000/1001) кадра/сек
Цветовое пространство : YUV
Субдискретизация насыщенности : 4:2:0
Битовая глубина : 8 бит
Тип развёртки : Прогрессивная
Бит/(Пиксели*Кадры) : 0.130
Размер потока : 677 Мбайт (91%)
Библиотека кодирования : x264 core 152 r2851 ba24899
Настройки программы : cabac=1 / ref=10 / deblock=1:-3:-3 / analyse=0x3:0x133 / me=umh / subme=11 / psy=1 / psy_rd=1.00:0.12 / mixed_ref=1 / me_range=32 / chroma_me=1 / trellis=2 / 8x8dct=1 / cqm=0 / deadzone=21,11 / fast_pskip=0 / chroma_qp_offset=-3 / threads=6 / lookahead_threads=1 / sliced_threads=0 / nr=0 / decimate=0 / interlaced=0 / bluray_compat=0 / constrained_intra=0 / bframes=10 / b_pyramid=2 / b_adapt=2 / b_bias=0 / direct=3 / weightb=1 / open_gop=0 / weightp=2 / keyint=240 / keyint_min=23 / scenecut=40 / intra_refresh=0 / rc_lookahead=40 / rc=2pass / mbtree=0 / bitrate=766 / ratetol=1.0 / qcomp=0.60 / qpmin=0 / qpmax=69 / qpstep=4 / cplxblur=20.0 / qblur=0.5 / vbv_maxrate=50000 / vbv_bufsize=62500 / nal_hrd=none / filler=0 / ip_ratio=1.40 / pb_ratio=1.30 / aq=1:1.00
Default : Да
Forced : Нет

Аудио
Идентификатор : 2
Формат : AAC
Формат/Информация : Advanced Audio Codec
Профиль формата : LC
Идентификатор кодека : A_AAC
Продолжительность : 2 ч. 3 м.
Битрейт : 76,0 Кбит/сек
Каналы : 2 канала
Расположение каналов : Front: L R
Частота : 48,0 КГц
Частота кадров : 46,875 кадров/сек (1024 SPF)
Метод сжатия : С потерями
Задержка видео : 9 мс.
Размер потока : 67,2 Мбайт (9%)
Default : Да
Forced : Нет

Текст #1
Идентификатор : 3
Формат : UTF-8
Идентификатор кодека : S_TEXT/UTF8
Идентификатор кодека/Информация : UTF-8 Plain Text
Продолжительность : 1 ч. 55 м.
Битрейт : 96 бит/сек
ElementCount : 1448
Размер потока : 81,3 Кбайт (0%)
Язык : Russian
Default : Нет
Forced : Нет

Текст #2
Идентификатор : 4
Формат : UTF-8
Идентификатор кодека : S_TEXT/UTF8
Идентификатор кодека/Информация : UTF-8 Plain Text
Продолжительность : 1 ч. 53 м.
Битрейт : 55 бит/сек
ElementCount : 1411
Размер потока : 45,9 Кбайт (0%)
Язык : English
Default : Нет
Forced : Нет

Меню
00:00:00.000 : en:Chapter 01
00:08:25.755 : en:Chapter 02
00:15:00.107 : en:Chapter 03
00:18:35.656 : en:Chapter 04
00:23:12.724 : en:Chapter 05
00:31:23.214 : en:Chapter 06
00:38:44.405 : en:Chapter 07
00:45:13.085 : en:Chapter 08
00:54:19.839 : en:Chapter 09
00:58:22.874 : en:Chapter 10
01:10:09.287 : en:Chapter 11
01:15:44.872 : en:Chapter 12
01:24:10.754 : en:Chapter 13
01:33:41.490 : en:Chapter 14
01:41:33.378 : en:Chapter 15
01:49:20.679 : en:Chapter 16



Релиз от:


_________________
Проголосуй за трекер Открытый торрент трекер - RUS-MEDIA.ORG

Проголосуй Открытый торрент трекер - RUS-MEDIA.ORG


Вернуться к началу
 Профиль Отправить личное сообщение  
 
   Похожие торренты   Автор   Торрент   Размер 
В этой теме нет новых непрочитанных сообщений. Шестой день / The 6th Day [Фантастика, боевик, триллер, 2000] BDRip 720p, Dub

salma3

0 | 0

5.76 ГБ

В этой теме нет новых непрочитанных сообщений. Красная планета / Red Planet [фантастика, боевик, триллер, 2000] HDRip-AVC, Dub

salma3

79 | 35

1.46 ГБ

В этой теме нет новых непрочитанных сообщений. Уравнитель 2000 / Equalizer 2000 [фантастика, боевик, приключения, 1987] HDRip, Avo

salma3

110 | 14

1.46 ГБ

В этой теме нет новых непрочитанных сообщений. Дракула 2000 / Dracula 2000 [ужасы, фэнтези, боевик, триллер, 2000] BDRip 720p, Dub+Sub

salma3

101 | 8

3.83 ГБ

В этой теме нет новых непрочитанных сообщений. Дракула 2000 / Dracula 2000 [ужасы, фэнтези, боевик, триллер, 2000] BDRip 1080p, Dub+Sub

salma3

54 | 14

9.81 ГБ

В этой теме нет новых непрочитанных сообщений. Красная планета / Red Planet [фантастика, боевик, триллер, 2000] BDRip, Mvo [НТВ]

salma3

8 | 4

1.45 ГБ

В этой теме нет новых непрочитанных сообщений. Красная планета / Red Planet [фантастика, боевик, триллер, 2000] BDRip-AVC, Dub

salma3

0 | 0

2.18 ГБ


Начать новую тему Ответить на тему  [ 1 сообщение ] 




Для Мосгорсуда, Роскомнадзора и рекламодателей:: mosgorsud-torrent[собачка]yandex.ru
cron