Торрент файл
скачать торрент магнет ссылка Добавлен: 16 фев 2018, 17:00
Размер: 2.18 ГБ
Сидеров: 2
Личеров: 6
Статус: (salma3)
Автор

СообщениеДобавлено: 16 фев 2018, 17:00 

Не в сети
Супермодератор
Аватара пользователя
Дата регистрации:
15 фев 2012, 16:44
Возраст: 29
Спасибо: 7320 / 2147
Сообщения: 73192
Год выпуска: 2000
Жанр: триллер, фантастика, драма
Режиссер: Грегори Хоблит

В ролях: Деннис Куэйд (Frank Sullivan), Джеймс Кэвизел (John Sullivan), Шон Дойл (Jack Shepard), Элизабет Митчелл (Julia Sullivan), Андре Брогер (Satch DeLeon), Ноа Эммерих (Gordo Hersch), Мелисса Эррико (Samantha Thomas), Дэниэл Хенсон (Johnny Sullivan (6 Years)), Джордан Бриджес (Graham Gibson), Стефен Джофф (Gordo Hersch (8 Years)), Джек МакКормак (Commander Butch O'Connell), Питер МакНейл (Butch Foster)

О фильме:
Полицейский Джон Салливэн случайно связывается по любительской радиостанции со своим покойным отцом, пожарным Фрэнком Салливэном, который умер во время тушения пожара много лет назад...




Страна: США
Продолжительность: 01:58:46
Перевод: Профессиональный (дублированный) R5

Файл
Качество: WEB-DLRip-AVC
Формат: Matroska
Видео: 1024x576 at 23.976 fps, High@L4.1, ~2177 kbps
Аудио: 48 kHz, AC3, 3/2 (L,C,R,l,r) + LFE ch, ~448 kbps
Субтитры: Russian, English (SDH, Amazon)

General
Unique ID : 158850092418769535756319802280653699310 (0x77816A3B32D6D7964FDECA0FDD6938EE)
Complete name : F:FILMSРадиоволна_(2000)_WEB_DLRIP-AVC_O.M_[-=DoMiNo=-].mkv
Format : Matroska
Format version : Version 4 / Version 2
File size : 2.18 GiB
Duration : 1 h 58 min
Overall bit rate : 2 628 kb/s
Movie name : Радиоволна
Deion : Представьте себе: вы получили возможность вернуться в прошлое и изменить в нем одно единственное событие. Какое событие вы бы выбрали? Полицейский Джон Салливан не сомневался бы ни минуты. Он хотел бы вернуть 12 октября 1969 года, когда огонь унес жизнь его отца, бесстрашного пожарного. Еще ребенком Джон пытался представить себе, как он мог бы остановить трагедию, наложившую отпечаток на всю его жизнь. И вот такая возможность представляется... Но, вторгшись в прошлое, Джон невольно вызвал неожиданную цепную реакцию. Спасение отца повлекло за собой серию убийств. Теперь Джон и его отец Фрэнк, разделенные тремя десятилетиями и связанные только по радио, должны попытаться предотвратить эти преступления. Но каждый раз, когда Фрэнк изменяет что-то в своей реальности, Джон просыпается в новом мире...
Writing application : XviD4PSP 7.0.443 DAILY
Writing library : Lavf57.71.100
ErrorDetectionType : Per level 1
Attachments : poster.jpg
ACTORS : Dennis Quaid, Jim Caviezel, Andre Braugher, Elizabeth Mitchell, Noah Emmerich, Shawn Doyle, Jordan Bridges, Melissa Errico, Michael Cera, Daniel Henson, Stephen Joffe, Jack McCormack, Peter MacNeill, Marin Hinkle, Richard Sali, Nesbitt Blaisdell, Joan Heney, Jessica Meyer, Kirsten Bishop, Rocco Sisto
COUNTRY : United States
DATE : 2000-04-28
DIRECTOR : Gregory Hoblit
GENRE : криминал, драма, фантастика, триллер
HD_VIDEO : 1
ITUNEXTC : PG-13, PG-13, PG-13
Language : und
MEDIA_TYPE : 9
ORIGINAL_TITLE : Frequency
PRODUCER : Bill Carraro, Hawk Koch, Toby Emmerich, Gregory Hoblit
PUBLISHER : New Line Cinema
RATING : 7.00

Video
ID : 1
Format : AVC
Format/Info : Advanced Video Codec
Format profile : High@L4.1
Format settings : CABAC / 10 Ref Frames
Format settings, CABAC : Yes
Format settings, ReFrames : 10 frames
Codec ID : V_MPEG4/ISO/AVC
Duration : 1 h 58 min
Bit rate : 2 177 kb/s
Width : 1 024 pixels
Height : 576 pixels
Display aspect ratio : 16:9
Frame rate mode : Constant
Frame rate : 23.976 (24000/1001) FPS
Color space : YUV
Chroma subsampling : 4:2:0
Bit depth : 8 bits
Scan type : Progressive
Bits/(Pixel*Frame) : 0.154
Stream size : 1.76 GiB (81%)
Title : RIP_BY_-=DoMiNo=-
Writing library : x264 core 155 r2901M 7d0ff22
Encoding settings : cabac=1 / ref=10 / deblock=1:-3:-3 / analyse=0x3:0x133 / me=umh / subme=11 / psy=1 / psy_rd=1.00:0.05 / mixed_ref=1 / me_range=32 / chroma_me=1 / trellis=2 / 8x8dct=1 / cqm=0 / deadzone=21,11 / fast_pskip=1 / chroma_qp_offset=-3 / threads=6 / lookahead_threads=1 / sliced_threads=0 / nr=0 / decimate=1 / interlaced=0 / bluray_compat=0 / constrained_intra=0 / bframes=12 / b_pyramid=2 / b_adapt=2 / b_bias=0 / direct=3 / weightb=1 / open_gop=0 / weightp=2 / keyint=240 / keyint_min=24 / scenecut=40 / intra_refresh=0 / rc_lookahead=60 / rc=2pass / mbtree=1 / bitrate=2177 / ratetol=1.0 / qcomp=0.60 / qpmin=0 / qpmax=69 / qpstep=4 / cplxblur=20.0 / qblur=0.5 / ip_ratio=1.40 / aq=1:1.00
Language : English
Default : Yes
Forced : No
Color range : Limited
Color primaries : BT.709
Transfer characteristics : BT.709
Matrix coefficients : BT.709

Audio
ID : 2
Format : AC-3
Format/Info : Audio Coding 3
Codec ID : A_AC3
Duration : 1 h 58 min
Bit rate mode : Constant
Bit rate : 448 kb/s
Channel(s) : 6 channels
Channel positions : Front: L C R, Side: L R, LFE
Sampling rate : 48.0 kHz
Frame rate : 31.250 FPS (1536 SPF)
Bit depth : 16 bits
Compression mode : Lossy
Stream size : 381 MiB (17%)
Title : AC3 5.1 448Kbps (Дубляж)
Language : Russian
Service kind : Complete Main
Default : Yes
Forced : No

Text #1
ID : 3
Format : UTF-8
Codec ID : S_TEXT/UTF8
Codec ID/Info : UTF-8 Plain Text
Language : Russian
Default : Yes
Forced : No

Text #2
ID : 4
Format : UTF-8
Codec ID : S_TEXT/UTF8
Codec ID/Info : UTF-8 Plain Text
Title : SDH, Amazon
Language : English
Default : No
Forced : No


_________________
Проголосуй за трекер Открытый торрент трекер - RUS-MEDIA.ORG

Проголосуй Открытый торрент трекер - RUS-MEDIA.ORG


Вернуться к началу
 Профиль Отправить личное сообщение  
 
   Похожие торренты   Автор   Торрент   Размер 
В этой теме нет новых непрочитанных сообщений. Радиоволна / Радиочастота / Frequency [Фантастика, триллер, драма, 2000] WEB-DLRip 720p, Dub [Open Matte]

salma3

0 | 0

8.54 ГБ

В этой теме нет новых непрочитанных сообщений. Радиоволна / Frequency [триллер, фантастика, драма, 2000] WEB-DL 1080p, Dub [Open Matte]

salma3

0 | 0

19.43 ГБ

В этой теме нет новых непрочитанных сообщений. Радиоволна / Frequency [триллер, фантастика, драма, 2000] BDRip-HEVC 1080p, Dub

salma3

0 | 0

9.45 ГБ

В этой теме нет новых непрочитанных сообщений. Радиоволна / Радиочастота / Frequency [Фантастика, триллер, драма, 2000] BDRip 720p, Dub

salma3

22 | 20

8.2 ГБ

В этой теме нет новых непрочитанных сообщений. Радиоволна / Frequency [01x01-04 из 10] ( Фантастика, фэнтези, триллер, драма, детектив, 2016) WEB-DLRip 720p | IdeaFilm

marya111

2 | 4

5.25 ГБ

В этой теме нет новых непрочитанных сообщений. Радиоволна / Frequency [S01] [Фантастика, фэнтези, триллер, 2016] WEB-DLRip, Mvo [IdeaFilm]

salma3

46 | 42

7.23 ГБ

В этой теме нет новых непрочитанных сообщений. Радиоволна / Frequency [S01] [Фантастика, фэнтези, триллер, 2016] WEB-DLRip 720p, Mvo [IdeaFilm]

salma3

18 | 34

17.49 ГБ


Начать новую тему Ответить на тему  [ 1 сообщение ] 




Для Мосгорсуда, Роскомнадзора и рекламодателей:: mosgorsud-torrent[собачка]yandex.ru
cron