Торрент файл
скачать торрент магнет ссылка Добавлен: 11 фев 2018, 12:21
Размер: 1.58 ГБ
Сидеров: 0
Личеров: 0
Статус: (salma3)
Автор

СообщениеДобавлено: 11 фев 2018, 12:21 

Не в сети
Супермодератор
Аватара пользователя
Дата регистрации:
15 фев 2012, 16:44
Возраст: 29
Спасибо: 7328 / 2147
Сообщения: 73276
Год выпуска: 2008
Страна: США
Жанр: драма, комедия

Перевод: Профессиональный (многоголосый, закадровый) R5
Субтитры: русские (full), английские (full)
Продолжительность: 01:24:42

Режиссер: Крэйг Лукас
В ролях: Мэттью Перри, Бен Фостер, Джиннифер Гудвин, Лорен Грэм, Зои Кравиц, Хилари Суэнк, Гари Уилмс, Дэниэл Эрик Голд, Стэйси Теон, Линдсэй Аллен


Описание:
Очень правильный парень живет в пригороде с очень правильной женой, работает преподавателем и очень хочет получить новую должность. Настолько хочет, что от напряжения начинаются проблемы со здоровьем. И тут на него сваливается не совсем нормальный брат с не совсем правильной сестрой, а тут еще начальник с женой, которым нужно лизать зад... тут то и начинается свистопляска...



Качество: BDRip-AVC
Формат: MKV
Видео: AVC, 1024x434 (2.35:1), 1767 kbps, 23,976 fps, 0,166 bpp
Аудио №1: русский / AC3 / 5.1 / 48 kHz / 448 kbps / MVO R5
Аудио №2: английский / AC3 / 5.1 / 48 kHz / 448 kbps / Оригинал
Навигация по главам: есть

Релиз от:

General
Unique ID : 199230884789230390635885640201679072196 (0x95E27901F70D474C9C9BAEAA3EAEEBC4)
Complete name : D:downloadBirds of America.2008.BDRip-AVC by schultz R.G.Resident.mkv
Format : Matroska
Format version : Version 4 / Version 2
File size : 1.58 GiB
Duration : 1 h 24 min
Overall bit rate : 2 662 kb/s
Encoded date : UTC 2018-02-10 22:25:10
Writing application : mkvmerge v8.9.0 ('Father Daughter') 64bit
Writing library : libebml v1.3.3 + libmatroska v1.4.4

Video
ID : 1
Format : AVC
Format/Info : Advanced Video Codec
Format profile : High@L4.1
Format settings, CABAC : Yes
Format settings, ReFrames : 10 frames
Codec ID : V_MPEG4/ISO/AVC
Duration : 1 h 24 min
Bit rate : 1 767 kb/s
Width : 1 024 pixels
Height : 434 pixels
Display aspect ratio : 2.35:1
Frame rate mode : Constant
Frame rate : 23.976 FPS
Color space : YUV
Chroma subsampling : 4:2:0
Bit depth : 8 bits
Scan type : Progressive
Bits/(Pixel*Frame) : 0.166
Stream size : 1.04 GiB (66%)
Writing library : x264 core 146 r2538 121396c
Encoding settings : cabac=1 / ref=10 / deblock=1:-3:-3 / analyse=0x3:0 / me=umh / subme=11 / psy=1 / psy_rd=1.00:0.00 / mixed_ref=1 / me_range=32 / chroma_me=1 / trellis=2 / 8x8dct=1 / cqm=0 / deadzone=21,11 / fast_pskip=0 / chroma_qp_offset=-2 / threads=12 / lookahead_threads=3 / sliced_threads=0 / nr=0 / decimate=0 / interlaced=0 / bluray_compat=0 / constrained_intra=0 / bframes=11 / b_pyramid=2 / b_adapt=2 / b_bias=0 / direct=3 / weightb=1 / open_gop=0 / weightp=2 / keyint=240 / keyint_min=23 / scenecut=40 / intra_refresh=0 / rc_lookahead=40 / rc=2pass / mbtree=0 / bitrate=1767 / ratetol=1.0 / qcomp=0.60 / qpmin=0 / qpmax=69 / qpstep=4 / cplxblur=20.0 / qblur=0.5 / vbv_maxrate=50000 / vbv_bufsize=62500 / nal_hrd=none / filler=0 / ip_ratio=1.40 / pb_ratio=1.30 / aq=1:1.00
Language : English
Default : Yes
Forced : No

Audio #1
ID : 2
Format : AC-3
Format/Info : Audio Coding 3
Mode extension : CM (complete main)
Format settings, Endianness : Big
Codec ID : A_AC3
Duration : 1 h 24 min
Bit rate mode : Constant
Bit rate : 448 kb/s
Channel(s) : 6 channels
Channel positions : Front: L C R, Side: L R, LFE
Sampling rate : 48.0 kHz
Frame rate : 31.250 FPS (1536 spf)
Compression mode : Lossy
Stream size : 271 MiB (17%)
Title : MVO R5
Language : Russian
Default : Yes
Forced : No

Audio #2
ID : 3
Format : AC-3
Format/Info : Audio Coding 3
Mode extension : CM (complete main)
Format settings, Endianness : Big
Codec ID : A_AC3
Duration : 1 h 24 min
Bit rate mode : Constant
Bit rate : 448 kb/s
Channel(s) : 6 channels
Channel positions : Front: L C R, Side: L R, LFE
Sampling rate : 48.0 kHz
Frame rate : 31.250 FPS (1536 spf)
Compression mode : Lossy
Stream size : 271 MiB (17%)
Title : Оригинал
Language : English
Default : No
Forced : No

Text #1
ID : 4
Format : UTF-8
Codec ID : S_TEXT/UTF8
Codec ID/Info : UTF-8 Plain Text
Duration : 1 h 18 min
Bit rate : 89 b/s
Count of elements : 980
Stream size : 51.6 KiB (0%)
Title : full
Language : Russian
Default : No
Forced : No

Text #2
ID : 5
Format : UTF-8
Codec ID : S_TEXT/UTF8
Codec ID/Info : UTF-8 Plain Text
Duration : 1 h 18 min
Bit rate : 49 b/s
Count of elements : 986
Stream size : 28.3 KiB (0%)
Title : full
Language : English
Default : No
Forced : No

Menu
00:00:00.000 : en:Chapter 1
00:08:13.993 : en:Chapter 2
00:14:42.673 : en:Chapter 3
00:20:38.487 : en:Chapter 4
00:27:14.549 : en:Chapter 5
00:35:19.992 : en:Chapter 6
00:42:32.550 : en:Chapter 7
00:48:21.315 : en:Chapter 8
00:57:58.308 : en:Chapter 9
01:06:07.755 : en:Chapter 10
01:15:02.581 : en:Chapter 11
01:19:16.877 : en:Chapter 12



_________________
Проголосуй за трекер Открытый торрент трекер - RUS-MEDIA.ORG

Проголосуй Открытый торрент трекер - RUS-MEDIA.ORG


Вернуться к началу
 Профиль Отправить личное сообщение  
 
   Похожие торренты   Автор   Торрент   Размер 
В этой теме нет новых непрочитанных сообщений. Моррис из Америки / Morris from America [драма, мелодрама, комедия, 2016] BDRip 720p, Mvo

salma3

44 | 26

3.56 ГБ

В этой теме нет новых непрочитанных сообщений. Огненные птицы / Fire Birds [Боевик, Приключения, 1990] BDRip 720p, Avo

salma3

32 | 0

3.38 ГБ

В этой теме нет новых непрочитанных сообщений. Моррис из Америки / Morris from America [драма, мелодрама, комедия, 2016] HDRip, Mvo

salma3

109 | 32

1.37 ГБ

В этой теме нет новых непрочитанных сообщений. Жёлтые птицы / The Yellow Birds [Драма, военный, 2017] WEBRip, Dvo

salma3

24 | 11

1.13 ГБ

В этой теме нет новых непрочитанных сообщений. Жёлтые птицы / The Yellow Birds [Драма, военный, 2017] WEBRip 720p, Dvo

salma3

0 | 0

3.27 ГБ

В этой теме нет новых непрочитанных сообщений. Сердце Америки / Heart of America [драма, 2002] DVDRip, Mvo

salma3

0 | 0

1.37 ГБ

В этой теме нет новых непрочитанных сообщений. Огненные птицы / Fire Birds [Боевик, приключения, 1990] HDRip, Avo

salma3

67 | 3

1.46 ГБ


Начать новую тему Ответить на тему  [ 1 сообщение ] 




Для Мосгорсуда, Роскомнадзора и рекламодателей:: mosgorsud-torrent[собачка]yandex.ru
cron