Торрент файл
скачать торрент магнет ссылка Добавлен: 10 фев 2018, 22:07
Размер: 1.46 ГБ
Сидеров: 18
Личеров: 6
Статус: (salma3)
Автор

СообщениеДобавлено: 10 фев 2018, 22:07 

Не в сети
Супермодератор
Аватара пользователя
Дата регистрации:
15 фев 2012, 16:44
Возраст: 28
Спасибо: 7290 / 2147
Сообщения: 70489
Год выхода: 2011
Жанр: ужасы, фантастика, триллер
Режиссер: Маттис ван Хейниген мл.

В ролях: Мэри Элизабет Уинстэд, Джоэл Эдгертон, Ульрих Томсен, Эрик Кристиан Олсен, Адевале Акиннуойе-Агбадже, Пол Браунштейн, Тронд Эспен Сейм, Ким Баббс, Ёрген Лангхелле, Ян Гуннар Рёйсе

О фильме: Научная экспедиция обнаруживает в Антарктике потерпевший крушение инопланетный космический корабль. Группа отчаянных учёных проникает в его недра и неожиданно для самих себя открывает ящик Пандоры. Среди непроходимых снегов и ледяных гор, выпущенное на свободу Нечто устраивает на исследовательской станции жуткую бойню.



Страна: США, Канада
Продолжительность: 01:43:00
Перевод: Профессиональный (дублированный)
Субтитры: Русские, Английские

Файл
Качество: HDRip-AVC
Видео: 1080x450 (2.40:1), 23.976 fps, x264 ~1640 kbps avg, 0.141 bit/pixel
Аудио 1: 48 kHz, AAC-HE, 3/2 (L,C,R,l,r) + LFE ch, ~192 kbps CBR [rus]
Аудио 2: 48 kHz, AAC-HE, 3/2 (L,C,R,l,r) + LFE ch, ~192 kbps CBR [eng]

General
Unique ID : 221433696833738022468762042922870129760 (0xA69694287DBCD7988D8C6E4067D64460)
Complete name : Nechto_0.2011.HDRip-AVC.[R.G.AllFilms].mkv
Format : Matroska
Format version : Version 2
File size : 1.46 GiB
Duration : 1h 43mn
Overall bit rate : 2 025 Kbps
Movie name : The Thing: Prequel (2011) - BDRip by (DeeKay)
Encoded date : UTC 2012-05-27 08:49:29
Writing application : mkvmerge v5.2.1 ('A Far Off Place') built on Jan 2 2012 23:21:10
Writing library : libebml v1.2.3 + libmatroska v1.3.0

Video
ID : 1
Format : AVC
Format/Info : Advanced Video Codec
Format profile : High@L3.2
Format settings, CABAC : Yes
Format settings, ReFrames : 9 frames
Codec ID : V_MPEG4/ISO/AVC
Duration : 1h 43mn
Nominal bit rate : 1 640 Kbps
Width : 1 080 pixels
Height : 450 pixels
Display aspect ratio : 2.40:1
Frame rate : 23.976 fps
Color space : YUV
Chroma subsampling : 4:2:0
Bit depth : 8 bits
Scan type : Progressive
Bits/(Pixel*Frame) : 0.141
Writing library : x264 core 124 r2197kMod 69a0443
Encoding settings : cabac=1 / ref=9 / deblock=1:-2:-1 / analyse=0x3:0x133 / me=umh / subme=11 / psy=1 / fade_compensate=0.00 / psy_rd=1.00:0.10 / mixed_ref=1 / me_range=32 / chroma_me=1 / trellis=2 / 8x8dct=1 / cqm=0 / deadzone=21,11 / fast_pskip=0 / chroma_qp_offset=-3 / threads=6 / sliced_threads=0 / nr=0 / decimate=1 / interlaced=0 / bluray_compat=0 / constrained_intra=0 / bframes=12 / b_pyramid=2 / b_adapt=2 / b_bias=0 / direct=3 / weightb=1 / open_gop=0 / weightp=2 / keyint=240 / keyint_min=23 / scenecut=40 / intra_refresh=0 / rc_lookahead=60 / rc=2pass / mbtree=0 / bitrate=1640 / ratetol=1.0 / qcomp=0.65 / qpmin=10 / qpmax=51 / qpstep=4 / cplxblur=20.0 / qblur=0.5 / vbv_maxrate=20000 / vbv_bufsize=20000 / nal_hrd=none / ip_ratio=1.35 / pb_ratio=1.25 / aq=3:1.00
Language : Norwegian
Default : Yes
Forced : Yes
Color primaries : BT.709-5, BT.1361, IEC 61966-2-4, SMPTE RP177
Transfer characteristics : BT.709-5, BT.1361
Matrix coefficients : BT.709-5, BT.1361, IEC 61966-2-4 709, SMPTE RP177

Audio #1
ID : 2
Format : AAC
Format/Info : Advanced Audio Codec
Format profile : HE-AAC / LC
Codec ID : A_AAC
Duration : 1h 42mn
Bit rate mode : Variable
Bit rate : 192 Kbps
Maximum bit rate : 217 Kbps
Channel(s) : 6 channels
Channel positions : Front: L C R, Side: L R, LFE
Sampling rate : 48.0 KHz / 24.0 KHz
Compression mode : Lossy
Stream size : 141 MiB
Writing library : Nero AAC codec 1.5.4.0
Encoding settings : -cbr 192000 -he
Title : dub
Language : Russian
Default : Yes
Forced : No

Audio #2
ID : 3
Format : AAC
Format/Info : Advanced Audio Codec
Format profile : HE-AAC / LC
Codec ID : A_AAC
Duration : 1h 43mn
Bit rate mode : Variable
Bit rate : 192 Kbps
Maximum bit rate : 217 Kbps
Channel(s) : 6 channels
Channel positions : Front: L C R, Side: L R, LFE
Sampling rate : 48.0 KHz / 24.0 KHz
Compression mode : Lossy
Stream size : 141 MiB
Writing library : Nero AAC codec 1.5.4.0
Encoding settings : -cbr 192000 -he
Language : English
Default : No
Forced : No

Text #1
ID : 4
Format : UTF-8
Codec ID : S_TEXT/UTF8
Codec ID/Info : UTF-8 Plain Text
Title : Voronine
Language : Russian
Default : Yes
Forced : No

Text #2
ID : 5
Format : UTF-8
Codec ID : S_TEXT/UTF8
Codec ID/Info : UTF-8 Plain Text
Language : English
Default : No
Forced : No

Menu
00:00:00.000 : en:Chapter 1
00:04:31.897 : en:Chapter 2
00:10:51.901 : en:Chapter 3
00:14:41.422 : en:Chapter 4
00:17:05.775 : en:Chapter 5
00:20:39.655 : en:Chapter 6
00:25:09.550 : en:Chapter 7
00:32:49.634 : en:Chapter 8
00:38:06.117 : en:Chapter 9
00:43:02.705 : en:Chapter 10
00:51:15.739 : en:Chapter 11
00:55:13.185 : en:Chapter 12
01:00:04.351 : en:Chapter 13
01:04:51.805 : en:Chapter 14
01:09:58.236 : en:Chapter 15
01:14:39.517 : en:Chapter 16
01:20:58.520 : en:Chapter 17
01:24:46.373 : en:Chapter 18
01:30:30.675 : en:Chapter 19
01:34:56.316 : en:Chapter 20


_________________
Проголосуй за трекер Открытый торрент трекер - RUS-MEDIA.ORG

Проголосуй Открытый торрент трекер - RUS-MEDIA.ORG


Вернуться к началу
 Профиль Отправить личное сообщение  
 
   Похожие торренты   Автор   Торрент   Размер 
В этой теме нет новых непрочитанных сообщений. Нечто / The Thing [Ужасы, фантастика, триллер, 2011] BDRemux 1080р, Dub

salma3

7 | 5

35.32 ГБ

В этой теме нет новых непрочитанных сообщений. Нечто / The Thing [ужасы, фантастика, триллер, детектив, 2011] BDRip, Avo [Гаврилов]

salma3

134 | 14

1.45 ГБ

В этой теме нет новых непрочитанных сообщений. Нечто / The Thing [ужасы, фантастика, триллер, 1982] BDRip 1080p, Mvo+Sub [лицензия]

salma3

150 | 5

4.37 ГБ

В этой теме нет новых непрочитанных сообщений. Нечто / The Thing from Another World [ужасы, фантастика, 1951] BDRip 720p, Dvo

salma3

0 | 0

7.14 ГБ

В этой теме нет новых непрочитанных сообщений. Тварь из бездны / The Thing Below [Ужасы, фантастика, триллер, 2004] DVDRip, Mvo

salma3

99 | 19

1.37 ГБ

В этой теме нет новых непрочитанных сообщений. Леший / Man-Thing [Ужасы, фантастика, боевик, 2005] HDTVRip-AVC, Dub

salma3

213 | 25

746.19 МБ

В этой теме нет новых непрочитанных сообщений. Кролик-убийца / Bunny the Killer Thing [ужасы, боевик, комедия, 2015] HDRip, Avo

salma3

0 | 0

1.46 ГБ


Начать новую тему Ответить на тему  [ 1 сообщение ] 




Для Мосгорсуда, Роскомнадзора и рекламодателей:: mosgorsud-torrent[собачка]yandex.ru
cron