Торрент файл
скачать торрент магнет ссылка Добавлен: 06 фев 2018, 13:07
Размер: 746.06 МБ
Сидеров: 85
Личеров: 37
Статус: (salma3)
Автор

СообщениеДобавлено: 06 фев 2018, 13:07 

Не в сети
Супермодератор
Аватара пользователя
Дата регистрации:
15 фев 2012, 16:44
Возраст: 29
Спасибо: 7328 / 2147
Сообщения: 73791
Год выхода: 2001
Жанр: Триллер, криминал, детектив
Режиссер: Альберт Хьюз

В ролях: Джонни Депп, Йен Холм, Хизер Грэм, Робби Колтрейн, Йен Ричардсон, Джейсон Флеминг, Катрин Картлидж, Теренс Харви, Сьюзэн Линч, Пол Риз, Лесли Шарп, Эстель Скорник, Николас МакГафи, Джоэнна Пейдж, Марк Декстер, Дэнни Мидуинтер, Саманта Спиро, Дэвид Шофилд, Брайан Фир, Питер Айр...

О фильме :
Он — воплощение тьмы и ужаса. Он самый таинственный и знаменитый из всех серийных убийц, известных истории. Он погрузил Англию в атмосферу страха и породил массу слухов и домыслов. Убийца, который знает больше простого мясника или лаборанта. Убивая, он совершает чудовищный ритуал. Его прозвище — Джек-Потрошитель. Поймать его пытается инспектор Фред Эбберлайн. С помощью опиума он усиливает свой природный дар ясновидения и приходит к выводу, что дело Джека-Потрошителя — часть злодейского заговора, в который замешан Орден Масонов, выполняющий, в свою очередь, волю королевского дома.



Страна: США, Twentieth Century-Fox Film Corporation
Продолжительность: 02:02:13
Перевод: Профессиональный (полное дублирование)

Файл
Формат: MKV
Качество: HDRip-AVC
Видео: MPEG-4 AVC, 752x320, ~ 775 Кбит/с
Аудио: AAC-LC, 2 ch, ~ 76 Кбит/с
Субтитры: Русские, английские

Общее
Уникальный идентификатор : 183009740118539875567543328556617661849 (0x89AE64D4111837C6A6F31AF923E17D99)
Полное имя : D:MOVIESFrom.Hell.2001.ExKinoRay.mkv
Формат : Matroska
Версия формата : Version 4 / Version 2
Размер файла : 746 Мбайт
Продолжительность : 2 ч. 2 м.
Общий поток : 853 Кбит/сек
Дата кодирования : UTC 2018-02-06 06:13:09
Программа кодирования : mkvmerge v15.0.0 ('Duel with the Devil') 64-bit
Библиотека кодирования : libebml v1.3.5 + libmatroska v1.4.5

Видео
Идентификатор : 1
Формат : AVC
Формат/Информация : Advanced Video Codec
Профиль формата : High@L4.1
Параметр CABAC формата : Да
Параметр RefFrames формата : 10 кадров
Идентификатор кодека : V_MPEG4/ISO/AVC
Продолжительность : 2 ч. 2 м.
Битрейт : 775 Кбит/сек
Ширина : 752 пикселя
Высота : 320 пикселей
Соотношение сторон : 2,35:1
Режим частоты кадров : Постоянный
Частота кадров : 23,976 (24000/1001) кадра/сек
Цветовое пространство : YUV
Субдискретизация насыщенности : 4:2:0
Битовая глубина : 8 бит
Тип развёртки : Прогрессивная
Бит/(Пиксели*Кадры) : 0.134
Размер потока : 677 Мбайт (91%)
Библиотека кодирования : x264 core 152 r2851kMod ba24899
Настройки программы : cabac=1 / ref=10 / deblock=1:-3:-2 / analyse=0x3:0x133 / me=umh / subme=11 / psy=1 / fade_compensate=0.00 / psy_rd=1.00:0.08 / mixed_ref=1 / me_range=32 / chroma_me=1 / trellis=2 / 8x8dct=1 / cqm=0 / deadzone=21,11 / fast_pskip=0 / chroma_qp_offset=-3 / threads=6 / lookahead_threads=1 / sliced_threads=0 / nr=0 / decimate=0 / interlaced=0 / bluray_compat=0 / constrained_intra=0 / bframes=10 / b_pyramid=2 / b_adapt=2 / b_bias=0 / direct=3 / weightb=1 / open_gop=0 / weightp=2 / keyint=240 / keyint_min=23 / scenecut=40 / intra_refresh=0 / rc_lookahead=40 / rc=2pass / mbtree=1 / bitrate=775 / ratetol=1.0 / qcomp=0.60 / qpmin=0 / qpmax=69 / qpstep=4 / cplxblur=20.0 / qblur=0.5 / vbv_maxrate=50000 / vbv_bufsize=62500 / nal_hrd=none / filler=0 / ip_ratio=1.40 / aq=3:1.00
Default : Да
Forced : Нет

Аудио
Идентификатор : 2
Формат : AAC
Формат/Информация : Advanced Audio Codec
Профиль формата : LC
Идентификатор кодека : A_AAC
Продолжительность : 2 ч. 2 м.
Битрейт : 76,0 Кбит/сек
Каналы : 2 канала
Расположение каналов : Front: L R
Частота : 48,0 КГц
Частота кадров : 46,875 кадров/сек (1024 SPF)
Метод сжатия : С потерями
Задержка видео : 9 мс.
Размер потока : 66,4 Мбайт (9%)
Default : Да
Forced : Нет

Текст #1
Идентификатор : 3
Формат : UTF-8
Идентификатор кодека : S_TEXT/UTF8
Идентификатор кодека/Информация : UTF-8 Plain Text
Продолжительность : 1 ч. 56 м.
Битрейт : 81 бит/сек
ElementCount : 1055
Размер потока : 69,6 Кбайт (0%)
Язык : Russian
Default : Нет
Forced : Нет

Текст #2
Идентификатор : 4
Формат : UTF-8
Идентификатор кодека : S_TEXT/UTF8
Идентификатор кодека/Информация : UTF-8 Plain Text
Продолжительность : 2 ч. 1 м.
Битрейт : 115 бит/сек
ElementCount : 1491
Размер потока : 103 Кбайт (0%)
Язык : Russian
Default : Нет
Forced : Нет

Текст #3
Идентификатор : 5
Формат : UTF-8
Идентификатор кодека : S_TEXT/UTF8
Идентификатор кодека/Информация : UTF-8 Plain Text
Продолжительность : 1 ч. 55 м.
Битрейт : 51 бит/сек
ElementCount : 1203
Размер потока : 43,2 Кбайт (0%)
Язык : English
Default : Нет
Forced : Нет

Текст #4
Идентификатор : 6
Формат : UTF-8
Идентификатор кодека : S_TEXT/UTF8
Идентификатор кодека/Информация : UTF-8 Plain Text
Продолжительность : 1 ч. 55 м.
Битрейт : 57 бит/сек
ElementCount : 1386
Размер потока : 48,2 Кбайт (0%)
Язык : English
Default : Нет
Forced : Нет

Меню
00:00:00.000 : Chasing the Dragon
00:02:00.746 : The Prostitutes' Problem
00:07:19.814 : Kidnapped
00:10:17.075 : A Vision of Death
00:15:16.666 : The New Treatment
00:18:20.891 : A Dead Woman
00:21:23.532 : A Different Breed of Killer
00:25:49.798 : Absinthe and Laudanum
00:31:51.243 : A Request For Help
00:36:35.568 : My Gentleman
00:41:14.972 : Ritual
00:45:23.638 : Butchers Aplenty
00:47:52.787 : Sir William's Advice
00:53:05.349 : Our Grandson's Malady
00:56:15.789 : Visions of Mary
00:59:33.403 : Special Branch
01:03:02.987 : Queen Annie
01:07:36.177 : Annie's Prince
01:11:29.577 : The Secret Ceremony
01:16:17.823 : Still a Woman
01:19:29.598 : The Surgeon's Assistant
01:20:53.473 : Unfinished Business
01:25:21.908 : Find a Scapegoat
01:26:31.186 : The Writing on the Wall
01:32:43.266 : The Freemasons
01:34:33.835 : Below the Skin
01:38:58.933 : The Ripper's Prisoner
01:40:27.146 : The Last Victim
01:45:57.017 : You're Being Watched
01:49:40.115 : Judgment
01:51:48.994 : Abberline's Choice
01:55:38.556 : End Titles




Релиз от:


_________________
Проголосуй за трекер Открытый торрент трекер - RUS-MEDIA.ORG

Проголосуй Открытый торрент трекер - RUS-MEDIA.ORG


Вернуться к началу
 Профиль Отправить личное сообщение  
 
   Похожие торренты   Автор   Торрент   Размер 
В этой теме нет новых непрочитанных сообщений. Из ада / From Hell [ужасы, триллер, детектив, 2001] BDRip, Dub

salma3

64 | 10

1.43 ГБ

В этой теме нет новых непрочитанных сообщений. Из ада / From Hell [ужасы, триллер, детектив, 2001] BDRip, Dub

salma3

11 | 3

2.19 ГБ

В этой теме нет новых непрочитанных сообщений. Медвежатник / The Score [триллер, драма, криминал, 2001] HDRip-AVC, Mvo

salma3

0 | 0

747.5 МБ

В этой теме нет новых непрочитанных сообщений. Скрытая угроза / Domestic Disturbance [триллер, криминал, детектив, 2001] WEB-DL 720p, Dub

salma3

0 | 1

3.67 ГБ

В этой теме нет новых непрочитанных сообщений. Не говори ни слова / Don't Say a Word [Триллер, драма, криминал, 2001] HDRip-AVC, Dub

salma3

40 | 3

746.62 МБ

В этой теме нет новых непрочитанных сообщений. 15 минут славы / 15 Minutes [боевик, триллер, драма, криминал, 2001] HDRip-AVC, Dub

salma3

165 | 69

745.89 МБ

В этой теме нет новых непрочитанных сообщений. 15 минут славы / 15 Minutes [Боевик, триллер, драма, криминал, 2001] HDRip, Mvo

salma3

24 | 4

1.46 ГБ


Начать новую тему Ответить на тему  [ 1 сообщение ] 




Для Мосгорсуда, Роскомнадзора и рекламодателей:: mosgorsud-torrent[собачка]yandex.ru
cron