Торрент файл
скачать торрент магнет ссылка Добавлен: 05 фев 2018, 21:18
Размер: 1.25 ГБ
Сидеров: 0
Личеров: 0
Статус: (salma3)
Автор

СообщениеДобавлено: 05 фев 2018, 21:18 

Не в сети
Супермодератор
Аватара пользователя
Дата регистрации:
15 фев 2012, 16:44
Возраст: 28
Спасибо: 7224 / 2147
Сообщения: 67853
Год выхода: 2017
Жанр: фантастика, боевик
Режиссер: Джеймс Марк

В ролях: Деннис Акаяма, Джонни Кейнс, Скотт Квальейру, Джессика Клемент, Амос Кроули, Эрик Дэниэл, Трой Фельдман, Джейсон Госби, Мили Хаттон, Рубен Лэнгдон и другие

О фильме:
Группа вооружённых солдат врывается в школу. Они хотят найти Дэвида — тихого мальчика, который страдает из-за ужасных и необъяснимых воспоминаний. Неожиданный конфликт пробуждает в Дэвиде дремавшие до того способности. Он отбивается от нападения и спасается бегством. Теперь он должен до конца овладеть новыми умениями, чтобы спасти близких и отомстить.



Страна: Канада, 2X Entertainment, Iron Bay Films
Продолжительность: 01:17:52
Перевод: Любительский (двухголосый закадровый)[HiWayGrope]

Файл
Качество: DVDRip
Видео: 720x304, 23.976 fps, ~2099 kbps avg, 0.40 bit/pixe
Аудио rus: AC3, 48 kHz, 2 ch, 192 Kbps

Реклама: присутствует

Семпл

General
Complete name : E:Kill.Order.2017.DVDRip.HiWayGropeKill.Order.2017.DVDRip.HiWayGrope.avi
Format : AVI
Format/Info : Audio Video Interleave
File size : 1.25 GiB
Duration : 1h 17mn
Overall bit rate : 2 301 Kbps
Writing application : VirtualDubMod 1.5.10.3 (build 2550/release)
Writing library : VirtualDubMod build 2550/release

Video
ID : 0
Format : MPEG-4 Visual
Format profile : Advanced Simple@L5
Format settings, BVOP : 1
Format settings, QPel : No
Format settings, GMC : No warppoints
Format settings, Matrix : Default (MPEG)
Codec ID : XVID
Codec ID/Hint : XviD
Duration : 1h 17mn
Bit rate : 2 100 Kbps
Width : 720 pixels
Height : 304 pixels
Display aspect ratio : 2.35:1
Frame rate : 23.976 (23976/1000) fps
Color space : YUV
Chroma subsampling : 4:2:0
Bit depth : 8 bits
Scan type : Progressive
Compression mode : Lossy
Bits/(Pixel*Frame) : 0.400
Stream size : 1.14 GiB (91%)
Writing library : XviD 73

Audio
ID : 1
Format : AC-3
Format/Info : Audio Coding 3
Mode extension : CM (complete main)
Format settings, Endianness : Big
Codec ID : 2000
Duration : 1h 17mn
Bit rate mode : Constant
Bit rate : 192 Kbps
Channel(s) : 2 channels
Channel positions : Front: L R
Sampling rate : 48.0 KHz
Frame rate : 31.250 fps (1536 spf)
Compression mode : Lossy
Stream size : 107 MiB (8%)
Alignment : Split accross interleaves
Interleave, duration : 42 ms (1.00 video frame)
Interleave, preload duration : 500 ms



Релиз от: HiWayGrope


_________________
Проголосуй за трекер Открытый торрент трекер - RUS-MEDIA.ORG

Проголосуй Открытый торрент трекер - RUS-MEDIA.ORG


Вернуться к началу
 Профиль Отправить личное сообщение  
 
   Похожие торренты   Автор   Торрент   Размер 
В этой теме нет новых непрочитанных сообщений. Убить заново / Перезагрузка / Re-Kill [ужасы, фантастика, боевик, триллер, 2015] WEB-DLRip, Dvo

salma3

2458 | 140

1.45 ГБ

В этой теме нет новых непрочитанных сообщений. Убить дважды / Убивай снова и снова / Kill and Kill Again [Боевик, драма, 1981] BDRip 1080p, Avo

salma3

12 | 11

9.25 ГБ

В этой теме нет новых непрочитанных сообщений. Убить за 68 / 68 Kill [триллер, мелодрама, комедия, 2017] WEB-DLRip, Mvo

salma3

895 | 103

1.45 ГБ

В этой теме нет новых непрочитанных сообщений. Убить за 68 / 68 Kill [триллер, мелодрама, комедия, 2017] WEB-DLRip, Mvo

salma3

503 | 64

1.37 ГБ

В этой теме нет новых непрочитанных сообщений. Убить за 68 / 68 Kill [триллер, мелодрама, комедия, 2017] WEB-DLRip 720р, Mvo

salma3

126 | 7

2.88 ГБ

В этой теме нет новых непрочитанных сообщений. Убить за 68 / 68 Kill [триллер, мелодрама, комедия, 2017] WEB-DLRip 720р, Mvo

salma3

413 | 180

2.71 ГБ

В этой теме нет новых непрочитанных сообщений. Убить Билла / Kill Bill: Vol. 1 [боевик, 2003] BDRemux 1080p, Dub

salma3

4 | 3

23.83 ГБ


Начать новую тему Ответить на тему  [ 1 сообщение ] 




Для Мосгорсуда, Роскомнадзора и рекламодателей:: mosgorsud-torrent[собачка]yandex.ru
cron