Торрент файл
скачать торрент магнет ссылка Добавлен: 03 фев 2018, 12:49
Размер: 1.39 ГБ
Сидеров: 18
Личеров: 7
Статус: (salma3)
Автор

СообщениеДобавлено: 03 фев 2018, 12:49 

Не в сети
Супермодератор
Аватара пользователя
Дата регистрации:
15 фев 2012, 16:44
Возраст: 29
Спасибо: 8062 / 2147
Сообщения: 91729
Год выхода: 2017
Жанр: Триллер, драма, биография, история
Режиссер: Стивен Спилберг

В ролях: Мэрил Стрип, Том Хэнкс, Сара Полсон, Боб Оденкёрк, Трэйси Леттс, Брэдли Уитфорд, Брюс Гринвуд, Мэттью Рис, Элисон Бри, Кэрри Кун и другие

О фильме:
История Кэтрин Грэм, первой женщины-издателя газеты «Вашингтон пост», и редактора Бена Брэдли. Они вступают в гонку с «Нью-Йорк таймс» за право пролить свет на государственные тайны, скрывавшиеся более 30 лет. Журналистам придется преодолеть свои разногласия и рискнуть карьерой и свободой, чтобы мир узнал правду.



Страна: США, Amblin Entertainment, DreamWorks SKG
Продолжительность: 01:56:26
Перевод: Любительский (двухголосый закадровый) | HiWayGrope

Файл
Кодек: XviD
Качество: DVDScr
Видео: 720x384, 30 fps, ~1499 kbps avg, 0.18 bit/pixe
Звук:
Аудио rus: AC3, 48 kHz, 2 ch, 192 Kbps
Субтитры: отсутствуют

Реклама: присутствует

Семпл

General
Complete name : E:The.Post.2017.DVDScr.HiWayGropeThe.Post.2017.DVDScr.HiWayGrope.avi
Format : AVI
Format/Info : Audio Video Interleave
File size : 1.39 GiB
Duration : 1h 56mn
Overall bit rate : 1 703 Kbps
Writing application : VirtualDubMod 1.5.10.3 (build 2550/release)
Writing library : VirtualDubMod build 2550/release

Video
ID : 0
Format : MPEG-4 Visual
Format profile : Advanced Simple@L5
Format settings, BVOP : 1
Format settings, QPel : No
Format settings, GMC : No warppoints
Format settings, Matrix : Default (MPEG)
Codec ID : XVID
Codec ID/Hint : XviD
Duration : 1h 56mn
Bit rate : 1 500 Kbps
Width : 720 pixels
Height : 384 pixels
Display aspect ratio : 1.85:1
Frame rate : 30.000 fps
Color space : YUV
Chroma subsampling : 4:2:0
Bit depth : 8 bits
Scan type : Progressive
Compression mode : Lossy
Bits/(Pixel*Frame) : 0.181
Stream size : 1.22 GiB (88%)
Writing library : XviD 73

Audio
ID : 1
Format : AC-3
Format/Info : Audio Coding 3
Mode extension : CM (complete main)
Format settings, Endianness : Big
Codec ID : 2000
Duration : 1h 56mn
Bit rate mode : Constant
Bit rate : 192 Kbps
Channel(s) : 2 channels
Channel positions : Front: L R
Sampling rate : 48.0 KHz
Frame rate : 31.250 fps (1536 spf)
Compression mode : Lossy
Stream size : 160 MiB (11%)
Alignment : Split accross interleaves
Interleave, duration : 33 ms (1.00 video frame)
Interleave, preload duration : 500 ms



Релиз от: HiWayGrope


_________________
Проголосуй за трекер Открытый торрент трекер - RUS-MEDIA.ORG

Проголосуй Открытый торрент трекер - RUS-MEDIA.ORG


Вернуться к началу
 Профиль Отправить личное сообщение  
 
   Похожие торренты   Автор   Торрент   Размер 
В этой теме нет новых непрочитанных сообщений. Секретное досье / The Post [Триллер, драма, биография, история, 2017] HDRip-AVC, Mvo

salma3

0 | 0

2.47 ГБ

В этой теме нет новых непрочитанных сообщений. Секретное досье / The Post [триллер, драма, биография, история, 2017] BDRip, Dub [iTunes]

salma3

118 | 23

746.62 МБ

В этой теме нет новых непрочитанных сообщений. Секретное досье / The Post [триллер, драма, биография, история, 2017] BDRip, Dub [iTunes]

salma3

634 | 112

1.41 ГБ

В этой теме нет новых непрочитанных сообщений. Секретное досье / The Post [Триллер, драма, биография, история, 2017] UHD BDRemux 2160p, Mvo

salma3

13 | 1

55.7 ГБ

В этой теме нет новых непрочитанных сообщений. Секретное досье / The Post [Триллер, драма, биография, 2017] HDRip, Mvo

salma3

98 | 25

1.46 ГБ

В этой теме нет новых непрочитанных сообщений. Секретное досье / The Post [Триллер, драма, биография, 2017] BDRip, Dub [Лицензия]

salma3

0 | 0

1.46 ГБ

В этой теме нет новых непрочитанных сообщений. Секретное досье / The Post [Триллер, драма, биография, 2017] BDRip-AVC, Dub [Лицензия]

salma3

0 | 0

2.18 ГБ


Начать новую тему Ответить на тему  [ 1 сообщение ] 




Для Мосгорсуда, Роскомнадзора и рекламодателей:: mosgorsud-torrent[собачка]yandex.ru
cron