Торрент файл
скачать торрент магнет ссылка Добавлен: 02 фев 2018, 12:16
Размер: 2.19 ГБ
Сидеров: 0
Личеров: 0
Статус: (salma3)
Автор

СообщениеДобавлено: 02 фев 2018, 12:16 

В сети
Супермодератор
Аватара пользователя
Дата регистрации:
15 фев 2012, 16:44
Возраст: 28
Спасибо: 7058 / 2147
Сообщения: 58832
Год выхода: 2008
Жанр: боевик, триллер, драма
Режиссер: Ник Валлелонга

В ролях: Стана Катик, Том Беренджер, Пол Слоун, Майкл Бин, Уильям Форсайт, Келли Ху, Аманда Брукс, Дайан Венора, Тони Лип, Джеймс Руссо

О фильме:
Детектив расследует ряд, на первый взгляд, случайных убийств. Эти преступления озадачивают и богатого греческого мафиози, он подозревает, что в них замешана его любовница, русская девушка по имени Раина. Женщина подставляет под удар конкурентов «организацию» своего друга, и оставляет много улик сыщику, идущему по пятам.



Страна: США
Продолжительность: 01:27:12
Перевод: профессиональный [многоголосный], закадровый

Файл
Кодек: H.264
Качество: BDRip-AVC
Видео: AVC, 1040x442 (2.35:1), 23.976 fps ~ 2 695 Kbps
Звук:
AC3, 48 KHz, 6 ch ~ 448 Kb/s (русский)
AC3, 48 KHz, 6 ch ~ 448 Kbps (английский)
Субтитры: русские, английские

Общее
Уникальный идентификатор : 198555439889721634139454451868514748755 (0x95606300C473CE9D9B77F7AC22E18953)
Полное имя : Q:TorFStiletto.(2008)_BDRip-AVC_R.G.All_Films.mkv
Формат : Matroska
Версия формата : Version 4 / Version 2
Размер файла : 2,19 Гбайт
Продолжительность : 1 ч. 27 м.
Общий поток : 3590 Кбит/сек
Название фильма : Путь клинка / Stiletto (2008) BDRip-AVC by andre90
Дата кодирования : UTC 2015-05-14 09:36:08
Программа кодирования : mkvmerge v7.9.0 ('Birds') 64bit
Библиотека кодирования : libebml v1.3.1 + libmatroska v1.4.2
DURATION : 01:27:12.288000000
NUMBER_OF_FRAMES : 163509
NUMBER_OF_BYTES : 293008128
_STATISTICS_WRITING_APP : mkvmerge v7.9.0 ('Birds') 64bit
_STATISTICS_WRITING_DATE_UTC : 2015-05-14 09:36:08
_STATISTICS_TAGS : BPS DURATION NUMBER_OF_FRAMES NUMBER_OF_BYTES
Attachment : Yes

Видео
Идентификатор : 1
Формат : AVC
Формат/Информация : Advanced Video Codec
Профиль формата : High@L4.1
Параметр CABAC формата : Да
Параметр ReFrames формата : 11 кадров
Идентификатор кодека : V_MPEG4/ISO/AVC
Продолжительность : 1 ч. 27 м.
Битрейт : 2695 Кбит/сек
Ширина : 1040 пикселей
Высота : 442 пикселя
Соотношение сторон : 2,35:1
Частота кадров : 23,976 кадра/сек
Цветовое пространство : YUV
Субдискретизация насыщенности : 4:2:0
Битовая глубина : 8 бит
Тип развёртки : Прогрессивная
Бит/(Пиксели*Кадры) : 0.245
Размер потока : 1,60 Гбайт (73%)
Библиотека кодирования : x264 core 146 r2538 121396c
Настройки программы : cabac=1 / ref=11 / deblock=1:1:-1 / analyse=0x3:0x133 / me=esa / subme=11 / psy=1 / psy_rd=0.90:0.00 / mixed_ref=1 / me_range=48 / chroma_me=1 / trellis=2 / 8x8dct=1 / cqm=0 / deadzone=21,11 / fast_pskip=0 / chroma_qp_offset=-2 / threads=6 / lookahead_threads=1 / sliced_threads=0 / nr=0 / decimate=1 / interlaced=0 / bluray_compat=0 / constrained_intra=0 / bframes=14 / b_pyramid=2 / b_adapt=2 / b_bias=0 / direct=3 / weightb=1 / open_gop=0 / weightp=2 / keyint=240 / keyint_min=23 / scenecut=40 / intra_refresh=0 / rc_lookahead=40 / rc=2pass / mbtree=1 / bitrate=2695 / ratetol=1.0 / qcomp=0.60 / qpmin=0 / qpmax=69 / qpstep=4 / cplxblur=20.0 / qblur=0.5 / vbv_maxrate=50000 / vbv_bufsize=62500 / nal_hrd=none / filler=0 / ip_ratio=1.40 / aq=2:1.00
Default : Да
Forced : Нет

Аудио #1
Идентификатор : 2
Формат : AC-3
Формат/Информация : Audio Coding 3
Расширение режима : CM (complete main)
Идентификатор кодека : A_AC3
Продолжительность : 1 ч. 27 м.
Вид битрейта : Постоянный
Битрейт : 448 Кбит/сек
Каналы : 6 каналов
Расположение каналов : Front: L C R, Side: L R, LFE
Частота : 48,0 КГц
Битовая глубина : 16 бит
Метод сжатия : С потерями
Размер потока : 279 Мбайт (12%)
Язык : Russian
Default : Да
Forced : Нет

Аудио #2
Идентификатор : 3
Формат : AC-3
Формат/Информация : Audio Coding 3
Расширение режима : CM (complete main)
Идентификатор кодека : A_AC3
Продолжительность : 1 ч. 27 м.
Вид битрейта : Постоянный
Битрейт : 448 Кбит/сек
Каналы : 6 каналов
Расположение каналов : Front: L C R, Side: L R, LFE
Частота : 48,0 КГц
Битовая глубина : 16 бит
Метод сжатия : С потерями
Размер потока : 279 Мбайт (12%)
Язык : English
Default : Нет
Forced : Нет

Текст #1
Идентификатор : 4
Формат : UTF-8
Идентификатор кодека : S_TEXT/UTF8
Идентификатор кодека/Информация : UTF-8 Plain Text
Язык : Russian
Default : Нет
Forced : Нет

Текст #2
Идентификатор : 5
Формат : UTF-8
Идентификатор кодека : S_TEXT/UTF8
Идентификатор кодека/Информация : UTF-8 Plain Text
Язык : English
Default : Нет
Forced : Нет

Меню
00:00:00.000 : en:Chapter 1
00:07:07.301 : en:Chapter 2
00:15:03.736 : en:Chapter 3
00:21:41.133 : en:Chapter 4
00:28:41.761 : en:Chapter 5
00:38:21.674 : en:Chapter 6
00:43:11.130 : en:Chapter 7
00:50:21.143 : en:Chapter 8
00:57:53.386 : en:Chapter 9
01:06:47.044 : en:Chapter 10
01:13:46.671 : en:Chapter 11
01:20:58.061 : en:Chapter 12


_________________
Проголосуй за трекер Открытый торрент трекер - RUS-MEDIA.ORG

Проголосуй Открытый торрент трекер - RUS-MEDIA.ORG


Вернуться к началу
 Профиль Отправить личное сообщение  
 
   Похожие торренты   Автор   Торрент   Размер 
В этой теме нет новых непрочитанных сообщений. Танец на лезвии / Stiletto Dance [боевик, драма, криминал, 2001] DVDRip, Mvo

salma3

25 | 1

1.37 ГБ

В этой теме нет новых непрочитанных сообщений. Звездный путь: Восстание / Star Trek: Insurrection [фантастика, боевик, триллер, приключения, 1998] BDRip 1080p, 3Mvo+Avo+Sub

salma3

39 | 33

9.02 ГБ

В этой теме нет новых непрочитанных сообщений. Вызов / Defiance [боевик, триллер, драма, военный, история, 2008] BDRip 720p , Dvo

salma3

76 | 46

11.99 ГБ

В этой теме нет новых непрочитанных сообщений. Макс Пэйн / Max Payne [боевик, триллер, драма, 2008] BDRip 720p, Dub [Unrated]

salma3

0 | 0

5.76 ГБ

В этой теме нет новых непрочитанных сообщений. Каратель: Территория войны / Punisher: War Zone [боевик, триллер, драма, 2008] BDRip 720p, Mvo

salma3

67 | 17

4.26 ГБ

В этой теме нет новых непрочитанных сообщений. Звездный путь / Star Trek [фантастика, боевик, приключения, 2009] BDRip, Dub

salma3

0 | 0

2.18 ГБ

В этой теме нет новых непрочитанных сообщений. Путь на юг / Southbound [Ужасы, фантастика, триллер, 2015] BDRip 1080p, Avo

salma3

0 | 0

8.92 ГБ


Начать новую тему Ответить на тему  [ 1 сообщение ] 




Для Мосгорсуда, Роскомнадзора и рекламодателей:: mosgorsud-torrent[собачка]yandex.ru
cron