Торрент файл
скачать торрент магнет ссылка Добавлен: 29 янв 2018, 13:02
Размер: 746.01 МБ
Сидеров: 0
Личеров: 0
Статус: (salma3)
Автор

СообщениеДобавлено: 29 янв 2018, 13:02 

Не в сети
Супермодератор
Аватара пользователя
Дата регистрации:
15 фев 2012, 16:44
Возраст: 28
Спасибо: 7061 / 2147
Сообщения: 59181
Год выхода: 1993
Жанр: Боевик, триллер
Режиссер: Джон Ву

В ролях: Жан-Клод Ван Дамм, Янси Батлер, Лэнс Хенриксен, Арнольд Вослу, Чак Пфаррер, Роберт Аписа, Дуглас Форсайт Рай, Майк Лейнерт, Ленор Бэнкс, Уилли С. Карпентер, Барбара Таскер, Кейси Леммонс, Рэнди Шерами, Элиотт Кинер, Роберт Павлович, Марко Ст. Джон, Джо Уорфилд, Жанетт Контомитра, Тед Рэйми, Том Люпо, Жуль Сильвестр, Дэвид Эфрон, Уилфорд Бримли

О фильме :
Мужественный герой неутомимого Ван Дамма пытается помочь молодой красавице найти ее отца, ветерана вьетнамской войны, пропавшего без вести не на полях сражений, а в родной стране, а в результате – вынужден не на жизнь, а на смерть схватиться с бандой патологических злодеев, которые используют несчастных бездомных в качестве жертв своей жестокой и опасной игры.



Страна: США
Продолжительность: 01:39:33
Перевод: Профессиональный (многоголосый закадровый) - R1

Файл
Формат: MKV
Качество: HDRip-AVC
Видео: MPEG-4 AVC, 752x408, ~ 970 Кбит/с
Аудио: AAC-LC, 2 ch, ~ 76 Кбит/с
Субтитры: Русские, английские

Общее
Уникальный идентификатор : 179441483392835189819874502198340201434 (0x86FF2C3060255AE5A44E5CABBB69ABDA)
Полное имя : D:MOVIESHard.Target.1993.ExKinoRay.mkv
Формат : Matroska
Версия формата : Version 4 / Version 2
Размер файла : 746 Мбайт
Продолжительность : 1 ч. 39 м.
Общий поток : 1048 Кбит/сек
Дата кодирования : UTC 2018-01-28 22:19:45
Программа кодирования : mkvmerge v15.0.0 ('Duel with the Devil') 64-bit
Библиотека кодирования : libebml v1.3.5 + libmatroska v1.4.5

Видео
Идентификатор : 1
Формат : AVC
Формат/Информация : Advanced Video Codec
Профиль формата : High@L4.1
Параметр CABAC формата : Да
Параметр RefFrames формата : 10 кадров
Идентификатор кодека : V_MPEG4/ISO/AVC
Продолжительность : 1 ч. 39 м.
Битрейт : 970 Кбит/сек
Ширина : 752 пикселя
Высота : 408 пикселей
Соотношение сторон : 1,85:1
Режим частоты кадров : Постоянный
Частота кадров : 23,976 (24000/1001) кадра/сек
Цветовое пространство : YUV
Субдискретизация насыщенности : 4:2:0
Битовая глубина : 8 бит
Тип развёртки : Прогрессивная
Бит/(Пиксели*Кадры) : 0.132
Размер потока : 690 Мбайт (93%)
Библиотека кодирования : x264 core 152 r2851kMod ba24899
Настройки программы : cabac=1 / ref=10 / deblock=1:-3:-2 / analyse=0x3:0x133 / me=umh / subme=11 / psy=1 / fade_compensate=0.00 / psy_rd=1.00:0.14 / mixed_ref=1 / me_range=32 / chroma_me=1 / trellis=2 / 8x8dct=1 / cqm=0 / deadzone=21,11 / fast_pskip=0 / chroma_qp_offset=-3 / threads=6 / lookahead_threads=1 / sliced_threads=0 / nr=0 / decimate=0 / interlaced=0 / bluray_compat=0 / constrained_intra=0 / bframes=10 / b_pyramid=2 / b_adapt=2 / b_bias=0 / direct=3 / weightb=1 / open_gop=0 / weightp=2 / keyint=240 / keyint_min=23 / scenecut=40 / intra_refresh=0 / rc_lookahead=40 / rc=2pass / mbtree=1 / bitrate=970 / ratetol=1.0 / qcomp=0.60 / qpmin=0 / qpmax=69 / qpstep=4 / cplxblur=20.0 / qblur=0.5 / vbv_maxrate=50000 / vbv_bufsize=62500 / nal_hrd=none / filler=0 / ip_ratio=1.40 / aq=3:1.00
Default : Да
Forced : Нет

Аудио
Идентификатор : 2
Формат : AAC
Формат/Информация : Advanced Audio Codec
Профиль формата : LC
Идентификатор кодека : A_AAC
Продолжительность : 1 ч. 39 м.
Битрейт : 76,0 Кбит/сек
Каналы : 2 канала
Расположение каналов : Front: L R
Частота : 48,0 КГц
Частота кадров : 46,875 кадров/сек (1024 SPF)
Метод сжатия : С потерями
Задержка видео : 9 мс.
Размер потока : 54,1 Мбайт (7%)
Default : Да
Forced : Нет

Текст #1
Идентификатор : 3
Формат : UTF-8
Идентификатор кодека : S_TEXT/UTF8
Идентификатор кодека/Информация : UTF-8 Plain Text
Продолжительность : 1 ч. 38 м.
Битрейт : 49 бит/сек
ElementCount : 651
Размер потока : 35,9 Кбайт (0%)
Язык : Russian
Default : Нет
Forced : Нет

Текст #2
Идентификатор : 4
Формат : UTF-8
Идентификатор кодека : S_TEXT/UTF8
Идентификатор кодека/Информация : UTF-8 Plain Text
Продолжительность : 1 ч. 34 м.
Битрейт : 34 бит/сек
ElementCount : 819
Размер потока : 23,7 Кбайт (0%)
Язык : English
Default : Нет
Forced : Нет

Меню
00:00:00.000 : en:00:00:00.000
00:08:22.293 : en:00:08:22.293
00:16:06.924 : en:00:16:06.924
00:26:03.645 : en:00:26:03.645
00:40:07.697 : en:00:40:07.697
00:42:53.029 : en:00:42:53.029
00:53:40.592 : en:00:53:40.592
01:05:01.481 : en:01:05:01.481
01:08:57.925 : en:01:08:57.925
01:12:25.216 : en:01:12:25.216
01:14:30.299 : en:01:14:30.299
01:18:05.973 : en:01:18:05.973
01:24:45.622 : en:01:24:45.622
01:27:23.947 : en:01:27:23.947
01:32:15.155 : en:01:32:15.155
01:34:28.413 : en:01:34:28.413




Релиз от:


_________________
Проголосуй за трекер Открытый торрент трекер - RUS-MEDIA.ORG

Проголосуй Открытый торрент трекер - RUS-MEDIA.ORG


Вернуться к началу
 Профиль Отправить личное сообщение  
 
   Похожие торренты   Автор   Торрент   Размер 
В этой теме нет новых непрочитанных сообщений. Трудная мишень / Hard Target [боевик, триллер, 1993] BDRip-HEVC 1080p, Dub [Extended Cut]

salma3

0 | 0

5.09 ГБ

В этой теме нет новых непрочитанных сообщений. Трудная мишень / Hard Target [Боевик, триллер, 1993] BDRip, Avo

salma3

36 | 3

1.48 ГБ

В этой теме нет новых непрочитанных сообщений. Трудная мишень / Hard Target [боевик, триллер, 1993] BDRip, Dub [Расширенная версия]

salma3

97 | 28

1.47 ГБ

В этой теме нет новых непрочитанных сообщений. Трудная мишень 2 / Hard Target 2 [Боевик, триллер, 2016] Blu-Ray CEE, Dub [Лицензия]

salma3

5 | 4

40.56 ГБ

В этой теме нет новых непрочитанных сообщений. Трудная мишень 2 / Hard Target 2 [Боевик, Триллер, 2016] BDRip-AVC, Dub [Лицензия]

salma3

17 | 2

2.71 ГБ

В этой теме нет новых непрочитанных сообщений. Трудная мишень 2 / Hard Target 2 [Боевик, триллер, 2016] BDRip, Dub [Лицензия]

salma3

7825 | 514

1.45 ГБ

В этой теме нет новых непрочитанных сообщений. Трудная мишень 2 / Hard Target 2 [боевик, триллер, 2016] BDRip 720p, Dub [Лицензия]

salma3

576 | 719

6.84 ГБ


Начать новую тему Ответить на тему  [ 1 сообщение ] 




Для Мосгорсуда, Роскомнадзора и рекламодателей:: mosgorsud-torrent[собачка]yandex.ru
cron