Торрент файл
скачать торрент магнет ссылка Добавлен: 28 янв 2018, 12:58
Размер: 745.92 МБ
Сидеров: 156
Личеров: 6
Статус: (salma3)
Автор

СообщениеДобавлено: 28 янв 2018, 12:58 

Не в сети
Супермодератор
Аватара пользователя
Дата регистрации:
15 фев 2012, 16:44
Возраст: 29
Спасибо: 7379 / 2147
Сообщения: 76045
Год выхода: 2007
Жанр: Фантастика, триллер, приключения
Режиссер: Дэнни Бойл

В ролях: Киллиан Мёрфи, Роуз Бирн, Клифф Кёртис, Мишель Йео, Крис Эванс, Хироюки Санада, Марк Стронг, Трой Гэрити, Бенедикт Вонг, Чипо Чанг

О фильме :
2057 год. Солнце погибает, и человечество встает перед лицом вымирания. Последняя надежда планеты Земля связана с «Икаром 2» — космическим кораблем, экипаж которого состоит из восьми мужчин и женщин во главе с капитаном Канедой. Их миссия — доставить ядерный заряд, с помощью которого предполагается повторно воспламенить гаснущее Солнце. Во время своего путешествия, находясь далеко в космическом безмолвии, в отсутствии какого-либо радиоконтакта с Землей, экипаж слышит слабые позывные сигналы с космического корабля «Икар 1», который пропал, выполняя семь лет назад ту же самую миссию, что и «Икар 2». Ужасная катастрофа ввергает миссию в очень опасную и рискованную ситуацию, и скоро команда обнаруживает, что вынуждена бороться не только за свои собственные жизни и душевное равновесие, но и за будущее всех нас…



Страна: Великобритания, США
Продолжительность: 01:47:27
Перевод: Профессиональный (полное дублирование)

Файл
Формат: MKV
Качество: BDRip-AVC
Видео: MPEG-4 AVC, 784x328, ~ 898 Кбит/с
Аудио: AAC-LC, 2 ch, ~ 76 Кбит/с
Субтитры: Русские, английские

Общее
Уникальный идентификатор : 226229299900385434857682450769011162312 (0xAA322DA4E9336D3FB1F48A64199E3CC8)
Полное имя : D:MOVIESSunshine.2007.ExKinoRay.mkv
Формат : Matroska
Версия формата : Version 4 / Version 2
Размер файла : 746 Мбайт
Продолжительность : 1 ч. 47 м.
Общий поток : 970 Кбит/сек
Дата кодирования : UTC 2018-01-27 19:00:57
Программа кодирования : mkvmerge v15.0.0 ('Duel with the Devil') 64-bit
Библиотека кодирования : libebml v1.3.5 + libmatroska v1.4.5

Видео
Идентификатор : 1
Формат : AVC
Формат/Информация : Advanced Video Codec
Профиль формата : High@L4.1
Параметр CABAC формата : Да
Параметр RefFrames формата : 10 кадров
Идентификатор кодека : V_MPEG4/ISO/AVC
Продолжительность : 1 ч. 47 м.
Битрейт : 898 Кбит/сек
Ширина : 784 пикселя
Высота : 328 пикселей
Соотношение сторон : 2,40:1
Режим частоты кадров : Постоянный
Частота кадров : 23,976 (24000/1001) кадра/сек
Цветовое пространство : YUV
Субдискретизация насыщенности : 4:2:0
Битовая глубина : 8 бит
Тип развёртки : Прогрессивная
Бит/(Пиксели*Кадры) : 0.146
Размер потока : 689 Мбайт (92%)
Библиотека кодирования : x264 core 152 r2851 ba24899
Настройки программы : cabac=1 / ref=10 / deblock=1:-2:-2 / analyse=0x3:0x133 / me=umh / subme=11 / psy=1 / psy_rd=1.00:0.07 / mixed_ref=1 / me_range=32 / chroma_me=1 / trellis=2 / 8x8dct=1 / cqm=0 / deadzone=21,11 / fast_pskip=0 / chroma_qp_offset=-3 / threads=6 / lookahead_threads=1 / sliced_threads=0 / nr=0 / decimate=0 / interlaced=0 / bluray_compat=0 / constrained_intra=0 / bframes=10 / b_pyramid=2 / b_adapt=2 / b_bias=0 / direct=3 / weightb=1 / open_gop=0 / weightp=2 / keyint=240 / keyint_min=23 / scenecut=40 / intra_refresh=0 / rc_lookahead=40 / rc=2pass / mbtree=0 / bitrate=898 / ratetol=1.0 / qcomp=0.60 / qpmin=0 / qpmax=69 / qpstep=4 / cplxblur=20.0 / qblur=0.5 / vbv_maxrate=50000 / vbv_bufsize=62500 / nal_hrd=none / filler=0 / ip_ratio=1.40 / pb_ratio=1.30 / aq=2:1.00
Default : Да
Forced : Нет

Аудио
Идентификатор : 2
Формат : AAC
Формат/Информация : Advanced Audio Codec
Профиль формата : LC
Идентификатор кодека : A_AAC
Продолжительность : 1 ч. 40 м.
Битрейт : 76,0 Кбит/сек
Каналы : 2 канала
Расположение каналов : Front: L R
Частота : 48,0 КГц
Частота кадров : 46,875 кадров/сек (1024 SPF)
Метод сжатия : С потерями
Задержка видео : 9 мс.
Размер потока : 54,9 Мбайт (7%)
Default : Да
Forced : Нет

Текст #1
Идентификатор : 3
Формат : UTF-8
Идентификатор кодека : S_TEXT/UTF8
Идентификатор кодека/Информация : UTF-8 Plain Text
Продолжительность : 1 ч. 41 м.
Битрейт : 59 бит/сек
ElementCount : 918
Размер потока : 44,3 Кбайт (0%)
Язык : Russian
Default : Нет
Forced : Нет

Текст #2
Идентификатор : 4
Формат : UTF-8
Идентификатор кодека : S_TEXT/UTF8
Идентификатор кодека/Информация : UTF-8 Plain Text
Продолжительность : 1 ч. 40 м.
Битрейт : 37 бит/сек
ElementCount : 918
Размер потока : 27,7 Кбайт (0%)
Язык : English
Default : Нет
Forced : Нет

Меню
00:00:00.000 : :Chapter 01
00:04:08.331 : :Chapter 02
00:08:11.574 : :Chapter 03
00:12:42.261 : :Chapter 04
00:21:24.408 : :Chapter 05
00:24:58.246 : :Chapter 06
00:35:16.239 : :Chapter 07
00:39:16.312 : :Chapter 08
00:47:03.946 : :Chapter 09
00:52:58.341 : :Chapter 10
00:56:26.299 : :Chapter 11
01:04:06.551 : :Chapter 12
01:05:41.854 : :Chapter 13
01:11:23.946 : :Chapter 14
01:17:06.663 : :Chapter 15
01:24:37.989 : :Chapter 16
01:30:37.598 : :Chapter 17
01:34:22.365 : :Chapter 18
01:39:33.467 : :Chapter 19
01:40:53.422 : :Chapter 20
01:47:28.233 : :Chapter 21




Релиз от: [/font]


_________________
Проголосуй за трекер Открытый торрент трекер - RUS-MEDIA.ORG

Проголосуй Открытый торрент трекер - RUS-MEDIA.ORG


Вернуться к началу
 Профиль Отправить личное сообщение  
 
   Похожие торренты   Автор   Торрент   Размер 
В этой теме нет новых непрочитанных сообщений. Пекло / Sunshine[фантастика, триллер, приключения, 2007] BDRip 1080p, Dub

salma3

743 | 51

4.37 ГБ

В этой теме нет новых непрочитанных сообщений. Пекло / Sunshine [фантастика, триллер, приключения, 2007] HDRip, Dub

salma3

76 | 3

1.45 ГБ

В этой теме нет новых непрочитанных сообщений. Пекло / Sunshine [фантастика, триллер, приключения, 2007] BDRemux 1080p, Dub

salma3

1 | 11

30.89 ГБ

В этой теме нет новых непрочитанных сообщений. Адское пекло: Дни разрушений / Meltdown: Days of destruction [Фантастика боевик, триллер, 2006] DVDRip, Mvo

salma3

95 | 20

1.37 ГБ

В этой теме нет новых непрочитанных сообщений. Тюремное пекло / Gam yuk fung wan / Prison on Fire [боевик, триллер, драма, 1987] BDRip, Avo

salma3

35 | 6

1.45 ГБ

В этой теме нет новых непрочитанных сообщений. Флэш / The Flash [03х01-11 из 23] (фантастика, боевик, драма, приключения, 2016) WEBRip | Sunshine Studio

marya111

43 | 490

4.85 ГБ

В этой теме нет новых непрочитанных сообщений. Стрела / Arrow [05х01-07 из 23] (фантастика, боевик, драма, криминал, детектив, приключения, 2016) HDTVRip | Sunshine Studio

marya111

111 | 535

3 ГБ


Начать новую тему Ответить на тему  [ 1 сообщение ] 




Для Мосгорсуда, Роскомнадзора и рекламодателей:: mosgorsud-torrent[собачка]yandex.ru
cron