Торрент файл
скачать торрент магнет ссылка Добавлен: 10 янв 2018, 12:10
Размер: 1.47 ГБ
Сидеров: 41
Личеров: 9
Статус: (salma3)
Автор

СообщениеДобавлено: 10 янв 2018, 12:10 

Не в сети
Супермодератор
Аватара пользователя
Дата регистрации:
15 фев 2012, 16:44
Возраст: 28
Спасибо: 7165 / 2147
Сообщения: 62382
Год выхода: 2006
Жанр: Драма
Режиссер: Херардо Нараньо / Gerardo Naranjo

В ролях: Фернандо Бесерриль, Хуан Пабло Кастанеда, Диана Гарсиа, Марта Клаудиа Морено, Мирьяна Моро, Эмилио Вальдес

О фильме:
Некогда роскошный, а теперь запущенный курорт Акапулько становится местом действия трёх взаимосвязанных историй, произошедших одним длинным жарким днем.
Первая — о красивой и холодной Фернанде, столкнувшейся с внезапным появлением своего бывшего любовника Чино. Гонсало, ее нынешний мужчина, вынужден соперничать с пылкой сексуальностью Чино. Вторая история о Джами, непорядочном офисном клерке, пытающемся покончить с жизнью на пляже в тот момент, когда там оказывается героиня третьей истории — недобрая девочка-подросток, однако спасшая ему жизнь.
Все герои фильма губительно морально-неустойчивы, что и является причиной основных конфликтов...



Страна: Мексика
Продолжительность: 01:32:21
Перевод:[/bПрофессиональный (многоголосый, закадровый)

Файл
[b]Качество:
DVDRip
Видео: 688x288 (2.39:1), 25 fps, XviD build 50 ~1619 kbps avg, 0.33 bit/pixel
Аудио: 48 kHz, AC3 Dolby Digital, 3/2 (L,C,R,l,r) + LFE ch, ~448 kbps
Аудио 2: 48 kHz, AC3 Dolby Digital, 2/0 (L,R) ch, ~192 kbps
Субтитры: русские, английские

Код:
Общее
Полное имя                               : D:Drama.Mex (Gerardo Naranjo, 2006) DVDRip (Rus, Spa).avi
Формат                                   : AVI
Формат/Информация                        : Audio Video Interleave
Размер файла                             : 1,47 Гбайт
Продолжительность                        : 1 ч. 32 м.
Общий поток                              : 2275 Кбит/сек
Название фильма                          : Drama.Mex (Gerardo Naranjo, 2006) DVDRip (Rus, Spa)
Режиссёр                                 : Maksmet
Программа кодирования                    : VirtualDubModRus 1.5.10.2 (build 2542/release)
Формат оригинала/Имя                     : Movie
Примечание                               : 08.01.2018

Видео
Идентификатор                            : 0
Формат                                   : MPEG-4 Visual
Профиль формата                          : Advanced Simple@L5
Параметр BVOP формата                    : 1
Параметр QPel формата                    : Нет
Параметр GMC формата                     : Без точки перехода
Параметр матрицы формата                 : Выборочная
Идентификатор кодека                     : XVID
Идентификатор кодека/Подсказка           : XviD
Продолжительность                        : 1 ч. 32 м.
Битрейт                                  : 1621 Кбит/сек
Ширина                                   : 688 пикселей
Высота                                   : 288 пикселей
Соотношение сторон                       : 2,40:1
Частота кадров                           : 25,000 кадров/сек
Цветовое пространство                    : YUV
Субдискретизация насыщенности            : 4:2:0
Битовая глубина                          : 8 бит
Тип развёртки                            : Прогрессивная
Метод сжатия                             : С потерями
Бит/(Пиксели*Кадры)                      : 0.327
Размер потока                            : 1,05 Гбайт (71%)
Библиотека кодирования                   : XviD 1.2.1 (UTC 2008-12-04)

Аудио #1
Идентификатор                            : 1
Формат                                   : AC-3
Формат/Информация                        : Audio Coding 3
Параметр Endianness формата              : Big
Идентификатор кодека                     : 2000
Продолжительность                        : 1 ч. 32 м.
Вид битрейта                             : Постоянный
Битрейт                                  : 448 Кбит/сек
Каналы                                   : 6 каналов
Расположение каналов                     : Front: L C R, Side: L R, LFE
Частота                                  : 48,0 КГц
Частота кадров                           : 31,250 кадров/сек (1536 SPF)
Битовая глубина                          : 16 бит
Метод сжатия                             : С потерями
Размер потока                            : 296 Мбайт (20%)
Выравнивание                             : Разделение по промежуткам
Продолжительность промежутка             : 40  мс. (1,00 видеокадр)
Время предзагрузки промежутка            : 500  мс.
ServiceKind/String                       : Complete Main

Аудио #2
Идентификатор                            : 2
Формат                                   : AC-3
Формат/Информация                        : Audio Coding 3
Параметр Endianness формата              : Big
Идентификатор кодека                     : 2000
Продолжительность                        : 1 ч. 32 м.
Вид битрейта                             : Постоянный
Битрейт                                  : 192 Кбит/сек
Каналы                                   : 2 канала
Расположение каналов                     : Front: L R
Частота                                  : 48,0 КГц
Частота кадров                           : 31,250 кадров/сек (1536 SPF)
Битовая глубина                          : 16 бит
Метод сжатия                             : С потерями
Размер потока                            : 127 Мбайт (8%)
Выравнивание                             : Разделение по промежуткам
Продолжительность промежутка             : 40  мс. (1,00 видеокадр)
Время предзагрузки промежутка            : 500  мс.
ServiceKind/String                       : Complete Main




Релиз от:


_________________
Проголосуй за трекер Открытый торрент трекер - RUS-MEDIA.ORG

Проголосуй Открытый торрент трекер - RUS-MEDIA.ORG


Вернуться к началу
 Профиль Отправить личное сообщение  
 
   Похожие торренты   Автор   Торрент   Размер 
В этой теме нет новых непрочитанных сообщений. Маршал / The Marshal / 1-2 сезоны 1-25 серии из 25 [боевик, драма, криминал, 1995] SATRip, [CBS Drama]

salma3

23 | 17

13.43 ГБ

В этой теме нет новых непрочитанных сообщений. Оперативник / The Handler / 1 сезон 1-16 серии из 16 [драма, криминал, триллер, 2003] SATRip, Dvo [CBS Drama]

salma3

23 | 26

8.6 ГБ

В этой теме нет новых непрочитанных сообщений. Голубая кровь / Blue Bloods / 3 сезон 1-23 серии из 23 [Драма, криминал, 2012] WEB-DLRip, Dvo [CBS Drama]

salma3

8 | 12

10.62 ГБ

В этой теме нет новых непрочитанных сообщений. Доктор Эмили Оуэнс / Emily Owens M.D. [01-13 из 13] [Драма, медицина, 2012-2013] SATRip, Nvo [CBS Drama]

salma3

12 | 18

6.99 ГБ

В этой теме нет новых непрочитанных сообщений. Голубая кровь / Blue Bloods / 3 сезон 1-23 серии из 23 [Драма, криминал, 2012] WEB-DL 720p, Dvo [CBS Drama]

salma3

5 | 16

31.53 ГБ

В этой теме нет новых непрочитанных сообщений. Голубая кровь / Blue Bloods / 3 сезон 1-5 серии из 23 [Драма, криминал, 2012] WEB-DLRip, Dvo [CBS Drama]

salma3

1 | 2

1.97 ГБ

В этой теме нет новых непрочитанных сообщений. Blackwood Crossing [Adventure, 1st Person, Drama, 2017] [RePack]

Sykre

6 | 1

1.91 ГБ


Начать новую тему Ответить на тему  [ 1 сообщение ] 




Для Мосгорсуда, Роскомнадзора и рекламодателей:: mosgorsud-torrent[собачка]yandex.ru
cron