Торрент файл
скачать торрент магнет ссылка Добавлен: 16 апр 2011, 21:42
Размер: 4.31 ГБ
Сидеров: 18
Личеров: 8
Автор

СообщениеДобавлено: 16 апр 2011, 21:42 

Не в сети
Супермодератор
Аватара пользователя
Дата регистрации:
22 май 2010, 11:03
Возраст: 32
Спасибо: 7690 / 13
Сообщения: 49871
Убить Билла: Фильм 1 / (Kill Bill: Vol. 1)




Слоган: «This October, Go For The Kill»

Перевод: Профессиональный (полное дублирование)
Субтитры: Отсутствуют
Формат: HDRip (BD 720p), H.264, MKV, DTS

Страна: США

Режиссер: Квентин Тарантино
Жанр: Боевик, Триллер, Криминал, Драма
Продолжительность: 1:51:00
Год выпуска: 2003

В ролях: Майкл Паркс, Ума Турман, Джеймс Паркс, Джули Дрейфус, Джонатан Лафран, Майкл Мэдсен, Чиаки Курияма, Сонни Чиба, Джун Кунимура, Кэндзи Оба, Сакити Сато, Люси Лиу, Дэрил Ханна, Майкл Бауэн, Вивика Э. Фокс, Дэвид Кэррадайн, Джа Хуи Лью

Описание: Главная героиня фильма по кличке «Невеста» приходит в себя после пятилетней комы. Придя в себя, девушка собирается отомстить за смерть своего не рождённого ребёнка. Пробыв такое долгое время в коме, в которой она оказалась благодаря наставнику и другу по имени Билл, девушка решает расправиться с ним и сделать всё, чтобы он понял с кем связался. Бесстрашная «Невеста» готова на всё, чтобы отомстить убийце своего собственного ребёнка. Она сделает всё, что поймать и убить Билла, который подставил её.







Видео: 1280*534(2,35:1), 23,976 fps, MPEG4/ISO/AVC , , х264, ~ 1 966 Kbps avg, 0.124 bit/pixel
Аудио: 48,0 KHz, DTS LCR, L,R, LFE, 6 channels,755 Kbps

Релиз группы:

D:\Films\Kill_Bill_Dilogy_[tfile.ru]\Kill_Bill_Vol._1.mkv
General
Complete name : D:\Films\Kill_Bill_Dilogy_[tfile.ru]\Kill_Bill_Vol._1.mkv
Format : Matroska
File size : 2.15 GiB
Duration : 1h 50mn
Overall bit rate : 2 776 Kbps
Movie name : Rip by Romeo [NOLIMITS-TEAM.RU]
Encoded date : UTC 2010-12-16 19:26:29
Writing application : mkvmerge v3.0.0 ('Hang up your Hang-Ups') built on Dec 12 2009 15:20:35
Writing library : libebml v0.7.9 + libmatroska v0.8.1
Cover : Yes / Yes / Yes
Video #1
ID : 1
Format : AVC
Format/Info : Advanced Video Codec
Format profile :
Format settings, CABAC : Yes
Format settings, ReFrames : 3 frames
Muxing mode : Container profile=Unknown@4.1
Codec ID : V_MPEG4/ISO/AVC
Duration : 1h 50mn
Bit rate : 1 966 Kbps
Nominal bit rate : 2 032 Kbps
Width : 1 280 pixels
Height : 534 pixels
Display aspect ratio : 2.35:1
Original display aspect ratio : 2.35:1
Frame rate : 23.976 fps
Resolution : 24 bits
Colorimetry : 4:2:0
Scan type : Progressive
Bits/(Pixel*Frame) : 0.120
Stream size : 1.52 GiB (71%)
Title : Убить Билла.[nolimits-team.ru]
Writing library : x264 core 108 r1788 c764e29
Encoding settings : cabac=1 / ref=1 / deblock=1:0:0 / analyse=0x3:0x3 / me=dia / subme=1 / psy=1 / psy_rd=0.00:0.00 / mixed_ref=0 / me_range=16 / chroma_me=1 / trellis=0 / 8x8dct=1 / cqm=0 / deadzone=21,11 / fast_pskip=1 / chroma_qp_offset=0 / threads=6 / sliced_threads=0 / slices=4 / nr=0 / decimate=1 / interlaced=0 / constrained_intra=0 / bframes=3 / b_pyramid=1 / b_adapt=1 / b_bias=0 / direct=1 / weightb=1 / open_gop=0 / weightp=0 / keyint=24 / keyint_min=1 / scenecut=40 / intra_refresh=0 / rc_lookahead=0 / rc=abr / mbtree=0 / bitrate=2032 / ratetol=1.0 / qcomp=0.60 / qpmin=0 / qpmax=51 / qpstep=4 / vbv_maxrate=17500 / vbv_bufsize=14500 / ip_ratio=1.10 / pb_ratio=1.10 / aq=1:1.00 / nal_hrd=vbr
Language : English
Audio #2
ID : 2
Format : DTS
Format/Info : Digital Theater Systems
Codec ID : A_DTS
Duration : 1h 50mn
Bit rate mode : Constant
Bit rate : 755 Kbps
Channel(s) : 6 channels
Channel positions : Front: L C R, Surround: L R, LFE
Sampling rate : 48.0 KHz
Resolution : 24 bits
Stream size : 598 MiB (27%)
Title : Rip by Romeo [NOLIMITS-TEAM.RU]
Language : Russian

______________________________










____________________________________________________________________________________________________________________________________________


Убить Билла. Фильм 2 / (Kill Bill: Vol. 2)




Слоган: «Решающий удар»

Перевод: Профессиональный (полное дублирование) + Субтитры (Отдельные)
Субтитры: Русские, Английские
Формат: HDRip (BD 720p), H.264, MKV, АС3

Страна: США

Режиссер: Квентин Тарантино
Жанр: Боевик, Триллер, Криминал, Драма
Продолжительность: 02:16:00
Год выпуска: 2004

В ролях: Майкл Паркс, Ума Турман, Бо Свенсон, Сид Хэйг, Майкл Мэдсен, Кэйтлин Китс, Джинни Эппер, Стефани Л. Мур, Шэна Стайн, Люси Лиу, Кларк Миддлтон, Джа Хуи Лью, Вивика Э. Фокс, Дэрил Ханна, Реда Биби, Ларри Бишоп, Дэвид Кэррадайн, Кристофер Аллен Нельсон, Сэмюэл Л. Джексон

Описание: Бывший киллер под кодовым названием «Невеста» (Ума Турман), намерена жестоко отомстить своим врагам, за всё зло, которое они причинили ей. Ясным летним днём группа боевиков пожаловала в небольшую церквушку, где шла её репетиция к свадьбе и устроили там резню, но Невесте было суждено выжить.
Их было всего пять, теперь осталось только трое, и самый главный враг, бывший возлюбленный –Билл. Это он виновник того, что Невеста потеряла всё, и весь смысл её жизни - это месть. Это Билл разрушил её новую жизнь, которую она хотела начать. Это Билл стрелял ей прямо в голову. Это Билл забрал её ребёнка, но она ещё об этом не знает…








Видео: 1280*532(2,40:1), 23,976 fps, MPEG4/ISO/AVC , , х264, ~ 1836 Kbps avg, 0.112 bit/pixel
Аудио: 48,0 KHz,AC3 LCR, L,R, LFE, 6 channels,384 Kbps

Релиз группы:

D:\Films\Kill_Bill_Dilogy_[tfile.ru]\Kill_Bill_Vol._2.mkv
General
Complete name : D:\Films\Kill_Bill_Dilogy_[tfile.ru]\Kill_Bill_Vol._2.mkv
Format : Matroska
File size : 2.17 GiB
Duration : 2h 16mn
Overall bit rate : 2 265 Kbps
Movie name : Rip by Romeo [NOLIMITS-TEAM.RU]
Encoded date : UTC 2010-12-16 19:57:31
Writing application : mkvmerge v3.0.0 ('Hang up your Hang-Ups') built on Dec 12 2009 15:20:35
Writing library : libebml v0.7.9 + libmatroska v0.8.1
Video #1
ID : 1
Format : AVC
Format/Info : Advanced Video Codec
Format profile :
Format settings, CABAC : Yes
Format settings, ReFrames : 3 frames
Muxing mode : Container profile=Unknown@4.1
Codec ID : V_MPEG4/ISO/AVC
Duration : 2h 16mn
Bit rate : 1 836 Kbps
Nominal bit rate : 1 888 Kbps
Width : 1 280 pixels
Height : 532 pixels
Display aspect ratio : 2.40:1
Original display aspect ratio : 2.40:1
Frame rate : 23.976 fps
Resolution : 24 bits
Colorimetry : 4:2:0
Scan type : Progressive
Bits/(Pixel*Frame) : 0.112
Stream size : 1.75 GiB (81%)
Title : Убить Билла. Фильм 2.[nolimits-team.ru]
Writing library : x264 core 108 r1788 c764e29
Encoding settings : cabac=1 / ref=1 / deblock=1:0:0 / analyse=0x3:0x3 / me=dia / subme=1 / psy=1 / psy_rd=0.00:0.00 / mixed_ref=0 / me_range=16 / chroma_me=1 / trellis=0 / 8x8dct=1 / cqm=0 / deadzone=21,11 / fast_pskip=1 / chroma_qp_offset=0 / threads=6 / sliced_threads=0 / slices=4 / nr=0 / decimate=1 / interlaced=0 / constrained_intra=0 / bframes=3 / b_pyramid=1 / b_adapt=1 / b_bias=0 / direct=1 / weightb=1 / open_gop=0 / weightp=0 / keyint=24 / keyint_min=1 / scenecut=40 / intra_refresh=0 / rc_lookahead=0 / rc=abr / mbtree=0 / bitrate=1888 / ratetol=1.0 / qcomp=0.60 / qpmin=0 / qpmax=51 / qpstep=4 / vbv_maxrate=17500 / vbv_bufsize=14500 / ip_ratio=1.10 / pb_ratio=1.10 / aq=1:1.00 / nal_hrd=vbr
Language : English
Audio #2
ID : 2
Format : AC-3
Format/Info : Audio Coding 3
Codec ID : A_AC3
Duration : 2h 16mn
Bit rate mode : Constant
Bit rate : 384 Kbps
Channel(s) : 6 channels
Channel positions : Front: L C R, Surround: L R, LFE
Sampling rate : 48.0 KHz
Stream size : 376 MiB (17%)
Title : Профессиональный (полное дублирование)
Language : Russian

______________________________











реклама партнёра


Вернуться к началу
 Профиль Отправить личное сообщение  
 
   Похожие торренты   Автор   Торрент   Размер 
В этой теме нет новых непрочитанных сообщений. Убить Билла 2 / Kill Bill: Vol. 2 [боевик, триллер, криминал, 2004] BDRemux 1080p, Dub

salma3

7 | 4

26.81 ГБ

В этой теме нет новых непрочитанных сообщений. Убить Билла / Kill Bill: Vol. 1 [боевик, 2003] BDRemux 1080p, Dub

salma3

4 | 3

23.83 ГБ

В этой теме нет новых непрочитанных сообщений. Убить гонца / Kill the Messenger (Майкл Куэста) [боевик, триллер, драма, 2014] HDRip, dvo

Dracon

13 | 3

1.46 ГБ

В этой теме нет новых непрочитанных сообщений. Убить гонца / Kill the Messenger (Майкл Куэста) [боевик, триллер, драма, 2014] HDRip, Dub [лицензия]

Dracon

7 | 1

1.46 ГБ

В этой теме нет новых непрочитанных сообщений. Убить гонца / Kill the Messenger (Майкл Куэста) [боевик, триллер, драма, 2014] HDRip, dub [Чистый звук]

Dracon

406 | 11

2.05 ГБ

В этой теме нет новых непрочитанных сообщений. Убить гонца / Kill the Messenger (Майкл Куэста) [боевик, триллер, драма, 2014] HDRip, dub [Чистый звук]

Dracon

19 | 3

1.46 ГБ

В этой теме нет новых непрочитанных сообщений. Во имя мести / Out For a Kill [Боевик, триллер, криминал, 2003] HDRip, Mvo

salma3

13 | 4

1.46 ГБ


Начать новую тему Ответить на тему  [ 1 сообщение ] 




Для Мосгорсуда, Роскомнадзора и рекламодателей:: mosgorsud-torrent[собачка]yandex.ru