Торрент файл
скачать торрент магнет ссылка Добавлен: 16 апр 2011, 21:34
Размер: 2.17 ГБ
Сидеров: 78
Личеров: 9
Автор

СообщениеДобавлено: 16 апр 2011, 21:34 

Не в сети
Супермодератор
Аватара пользователя
Дата регистрации:
22 май 2010, 11:03
Возраст: 31
Спасибо: 7509 / 13
Сообщения: 49940
Джеймс Бонд 007: Квант милосердия / James Bond 007: Quantum of Solace



Перевод: Профессиональный (полное дублирование), cубтитры: отсутствуют

Слоган: «The love of its all life was lost, and guilty should incur punishment. Bond will revenge.»

Формат: HDRip-AVC, MKV, H.264, AC3
Страна: США, Великобритания
Режиссер: Марк Форстер
Жанр: Боевик, триллер, приключения
Продолжительность: 01:46:14
Год выпуска: 2008

В ролях: Дэниэл Крэйг, Ольга Куриленко, Матье Амальрик, Джуди Денч, Джанкарло Джаннини, Джемма Артертон, Джеффри Райт, Дэвид Харбор, Джеспер Кристенсен, Анатоль Таубман

Описание: После предательства Веспер, агент 007 борется с желанием превратить последнее задание в личную вендетту. В поисках истины, Бонд и М допрашивают Мистера Уайта, от которого узнают, что шантажировавшая Веспер Организация намного сложнее и опаснее, чем можно было подумать.
Судмедэксперты Mi6 устанавливают связь Веспер с анонимным банковским счётом на Гаити. Там Бонд случайно знакомится с боевой девушкой Камиллой, которая тоже жаждет мести. Через Камиллу Бонд выходит на Доминика Грина, жестокого бизнесмена и не последнего человека в Организации.
Побывав в Австрии, Италии и Южной Америке, Бонд узнает о совместном заговоре Грина и генерала Медрано с целью установления контроля над мировыми запасами нефти. Используя возможности Организации и верных ему людей в ЦРУ и британской разведке, Грин обещает генералу свергнуть существующий режим в латиноамериканской стране, в обмен на, казалось бы, пустынный участок земли.
Бонд прибегает к помощи старых друзей, чтобы установить истину. Чем ближе к установлению личности человека, толкнувшего Веспер на предательство, тем сложнее Бонду быть на шаг впереди ЦРУ, террористов и даже М, чтобы раскрыть злодейский план Грина и остановить его Организацию.



Рейтинг MPAA:PG-13 - Детям до 13 лет просмотр не желателен

Видео: 1280x536 (2.35:1), 23.976 fps, MPEG4 AVC (x264) , ~2 571 kbps avg, 0.151 bit/pixel
Аудио: 48 kHz, AC3, 6 ch, ~384.00 kbps avg

Дополнительная информация:
бюджет = $200 000 000
сборы в США = $168 368 427
сборы в мире + $417 722 300 = $586 090 727
сборы в России = $18 054 093
DVD в США = $43 109 784


Релиз:


Video #1
ID : 1
Format : AVC
Format/Info : Advanced Video Codec
Format profile :
Format settings, CABAC : Yes
Format settings, ReFrames : 3 frames
Muxing mode : Container profile=Unknown@4.1
Codec ID : V_MPEG4/ISO/AVC
Duration : 1h 46mn
Bit rate : 2 477 Kbps
Nominal bit rate : 2 571 Kbps
Width : 1 280 pixels
Height : 536 pixels
Display aspect ratio : 2.35:1
Original display aspect ratio : 2.35:1
Frame rate : 23.976 fps
Resolution : 24 bits
Colorimetry : 4:2:0
Scan type : Progressive
Bits/(Pixel*Frame) : 0.151
Stream size : 1.84 GiB (85%)
Writing library : x264 core 112 r1867 22bfd31
Encoding settings : cabac=1 / ref=1 / deblock=1:0:0 / analyse=0x3:0x3 / me=dia / subme=1 / psy=1 / psy_rd=0.00:0.00 / mixed_ref=0 / me_range=16 / chroma_me=1 / trellis=0 / 8x8dct=1 / cqm=0 / deadzone=21,11 / fast_pskip=1 / chroma_qp_offset=0 / threads=3 / sliced_threads=0 / slices=4 / nr=0 / decimate=1 / interlaced=0 / constrained_intra=0 / bframes=3 / b_pyramid=1 / b_adapt=1 / b_bias=0 / direct=1 / weightb=1 / open_gop=0 / weightp=1 / keyint=24 / keyint_min=1 / scenecut=40 / intra_refresh=0 / rc_lookahead=0 / rc=abr / mbtree=0 / bitrate=2571 / ratetol=1.0 / qcomp=0.60 / qpmin=0 / qpmax=51 / qpstep=4 / vbv_maxrate=17500 / vbv_bufsize=14500 / nal_hrd=vbr / ip_ratio=1.10 / pb_ratio=1.10 / aq=1:1.00
Language : English
Audio #2
ID : 2
Format : AC-3
Format/Info : Audio Coding 3
Codec ID : A_AC3
Duration : 1h 46mn
Bit rate mode : Constant
Bit rate : 384 Kbps
Channel(s) : 6 channels
Channel positions : Front: L C R, Surround: L R, LFE
Sampling rate : 48.0 KHz
Video delay : 896ms
Stream size : 292 MiB (13%)
Title : Dub
Language : Russian








реклама партнёра


Вернуться к началу
 Профиль Отправить личное сообщение  
 
   Похожие торренты   Автор   Торрент   Размер 
В этой теме нет новых непрочитанных сообщений. Quantum Break [Action, 3D, 3rd Person, 2016] [RePack]

Sykre

18 | 1

35.22 ГБ

В этой теме нет новых непрочитанных сообщений. Quantum Break [Action, Shooter, 3D, 3rd-Person, 2016] [RePack]

salma3

2789 | 6252

27.99 ГБ

В этой теме нет новых непрочитанных сообщений. Десница божья / Hand of God [01x10 из 10] (Марк Форстер, Брэд Андерсон, Сара Пиа Андерсон) [2015, Драма, WEBRip 720p | IdeaFilm]

Dracon

19 | 27

16.87 ГБ

В этой теме нет новых непрочитанных сообщений. Десница Божья / Hand of God [S01] (Марк Форстер, Брэд Андерсон, Сара Пиа Андерсон) [драма, криминал, 2014-2015] WEBRip [BaibaKo]

Dracon

124 | 66

7.31 ГБ

В этой теме нет новых непрочитанных сообщений. Десница Божья / Hand of God [01x01-10 из 10] (Марк Форстер, Брэд Андерсон, Сара Пиа Андерсон) [2014-2015, драма, криминал, WEBRip | IdeaFilm]

Dracon

77 | 28

4.23 ГБ

В этой теме нет новых непрочитанных сообщений. Десница Бога / Hand of God [S01] (Марк Форстер, Брэд Андерсон, Сара Пиа Андерсон) [драма, криминал, 2014-2015] WEBRip 720p [BaibaKo]

Dracon

231 | 238

14.13 ГБ

В этой теме нет новых непрочитанных сообщений. Идеальные каникулы / A Perfect Vacation / Awaken (Марк Аткинс) [ужасы, боевик, триллер, 2015] HDRip, Mvo

Dracon

636 | 56

1.37 ГБ


Начать новую тему Ответить на тему  [ 1 сообщение ] 




Для Мосгорсуда, Роскомнадзора и рекламодателей:: mosgorsud-torrent[собачка]yandex.ru