COVID-19 - Последняя информация о коронавирусе на сайте Минздрава




Торрент файл
скачать торрент магнет ссылка Добавлен: 31 дек 2017, 21:59
Размер: 1.47 ГБ
Сидеров: 4
Личеров: 4
Статус: (salma3)
Автор

СообщениеДобавлено: 31 дек 2017, 21:59 

Не в сети
Супермодератор
Аватара пользователя
Дата регистрации:
15 фев 2012, 16:44
Возраст: 30
Спасибо: 8263 / 2148
Сообщения: 96287
Год выхода: 1986
Жанр: драма, семейный
Режиссер: Алан Шапиро

В ролях: Эдвард Эснер, Рене Обержонуа, Джим Метцлер, Сьюзен Тиррел, Карен Ландри, Алан Норт, Филип Брунс, Николас Ван Бурек, Викки Уочоуп, Зэкари Энсли

О фильме:
Хорас Макникл второй раз попадает в тюрьму за подделку документов. В неделю перед Рождеством он бежит оттуда, переодетый Санта Клаусом. Макникл скрывается от полиции в близлежащем пригороде, где ему помогают двое местных мальчишек, которые думают, что он настоящий Санта Клаус. Макникл надеется, что дети помогут ему в его темных делах, но вместо этого они помогают ему понять истинную природу Рождества.



Производство: США
Продолжительность: 01:33:43
Перевод: любительский (одноголосый закадровый) [Семен Ващенко]

Файл
Качество: DVDRip
Видео: XviD, 640x480 (4:3), 23.976 fps, 1840 kbps, 0.25 bit/pixel
Аудио #1: русский, AC3 2.0, 48 kHz, 192 kbps
Аудио #2: английский, AC3 2.0, 48 kHz, 192 kbps
Субтитры: русские [karlivanovich] внешние, SRT



Формат : AVI
Формат/Информация : Audio Video Interleave
Размер файла : 1,47 Гбайт
Продолжительность : 1 ч. 33 м.
Общий поток : 2238 Кбит/сек
Программа кодирования : VirtualDubMod 1.5.10.2 (build 2542/release)
Библиотека кодирования : VirtualDubMod build 2542/release

Видео
Идентификатор : 0
Формат : MPEG-4 Visual
Профиль формата : Advanced Simple@L5
Параметр BVOP формата : 1
Параметр QPel формата : Нет
Параметр GMC формата : Без точки перехода
Параметр матрицы формата : Default (MPEG)
Идентификатор кодека : XVID
Идентификатор кодека/Подсказка : XviD
Продолжительность : 1 ч. 33 м.
Битрейт : 1840 Кбит/сек
Ширина : 640 пикселей
Высота : 480 пикселей
Соотношение сторон : 4:3
Частота кадров : 23,976 кадра/сек
Цветовое пространство : YUV
Субдискретизация насыщенности : 4:2:0
Битовая глубина : 8 бит
Тип развёртки : Прогрессивная
Метод сжатия : С потерями
Бит/(Пиксели*Кадры) : 0.250
Размер потока : 1,20 Гбайт (82%)
Библиотека кодирования : XviD 1.2.1 (UTC 2008-12-04)

Аудио #1
Идентификатор : 1
Формат : AC-3
Формат/Информация : Audio Coding 3
Расширение режима : CM (complete main)
Параметр Endianness формата : Big
Идентификатор кодека : 2000
Продолжительность : 1 ч. 33 м.
Вид битрейта : Постоянный
Битрейт : 192 Кбит/сек
Каналы : 2 канала
Расположение каналов : Front: L R
Частота : 48,0 КГц
Метод сжатия : С потерями
Размер потока : 129 Мбайт (9%)
Выравнивание : Разделение по промежуткам
Продолжительность промежутка : 42 мс. (1,00 видеокадр)
Время предзагрузки промежутка : 500 мс.

Аудио #2
Идентификатор : 2
Формат : AC-3
Формат/Информация : Audio Coding 3
Расширение режима : CM (complete main)
Параметр Endianness формата : Big
Идентификатор кодека : 2000
Продолжительность : 1 ч. 33 м.
Вид битрейта : Постоянный
Битрейт : 192 Кбит/сек
Каналы : 2 канала
Расположение каналов : Front: L R
Частота : 48,0 КГц
Метод сжатия : С потерями
Размер потока : 129 Мбайт (9%)
Выравнивание : Разделение по промежуткам
Продолжительность промежутка : 42 мс. (1,00 видеокадр)
Время предзагрузки промежутка : 500 мс.

Релиз от:


_________________
Проголосуй за трекер Открытый торрент трекер - RUS-MEDIA.ORG

Проголосуй Открытый торрент трекер - RUS-MEDIA.ORG


Скачать книги и аудио книги через торрент


Вернуться к началу
 Профиль Отправить личное сообщение  
 
   Похожие торренты   Автор   Торрент   Размер 
В этой теме нет новых непрочитанных сообщений. Рождественская звезда / The Christmas Star [Драма, семейный, 1986] WEB-DL 1080p, Avo

salma3

0 | 0

7.58 ГБ

В этой теме нет новых непрочитанных сообщений. Рождественская история / A Christmas Story [драма, комедия, семейный, 1983] BDRip-HEVC 1080p, Mvo

salma3

0 | 0

7.82 ГБ

В этой теме нет новых непрочитанных сообщений. Звезда шерифа / Одинокая звезда / Lone Star [Детектив, драма, вестерн, 1996] WEB-DLRip 720p, Mvo

salma3

0 | 0

4.37 ГБ

В этой теме нет новых непрочитанных сообщений. Вечерняя звезда / The Evening Star [комедия, драма, мелодрама, 1996] WEBRip 1080p, Avo

salma3

4 | 6

11.06 ГБ

В этой теме нет новых непрочитанных сообщений. Рождественская история / A Christmas Carol [Мультфильм, фэнтези, драма, 2009] BDRemux 1080p, Dub

salma3

0 | 0

19.6 ГБ

В этой теме нет новых непрочитанных сообщений. Рождественская сказка Маппетов / The Muppet Christmas Carol [мюзикл, фэнтези, драма, 1992] HDRip, Mvo

salma3

0 | 0

744.55 МБ

В этой теме нет новых непрочитанных сообщений. Стальная звезда / Tin Star [S02] [Драма, триллер, 2019] WEBRip, Mvo [IdeaFilm]

salma3

0 | 0

6.14 ГБ


Начать новую тему Ответить на тему  [ 1 сообщение ] 




Для Мосгорсуда, Роскомнадзора и рекламодателей:: rstracker[собака]yandex.ru
cron