Торрент файл
скачать торрент магнет ссылка Добавлен: 16 апр 2011, 21:29
Размер: 2.91 ГБ
Сидеров: 20
Личеров: 4
Автор

СообщениеДобавлено: 16 апр 2011, 21:29 

Не в сети
Супермодератор
Аватара пользователя
Дата регистрации:
22 май 2010, 11:03
Возраст: 31
Спасибо: 7524 / 13
Сообщения: 49940
Мистер и миссис Смит / Mr.Mrs. Smith


Перевод: Профессиональный (полное дублирование).
Субтитры: Русские,Английские(отдельно)
Формат: HDRip-AVC, MKV, H.264, AC3.
Страна: США.
Режиссер: Даг Лайман / Doug Liman.
Жанр: боевик,комедия.
Продолжительность: 01:59:58.
Год выпуска: 2005.
В ролях: Брэд Питт, Анджелина Джоли, Винс Вон, Адам Броди, Керри Вашингтон, Кейт Дэвид, Крис Вейц, Рэйчел Хантли, Мишель Монахэн, Стефани Марч, Дженнифер Моррисон, Тереза Баррера, Перри Ривз, Мелани Толберт, Джерри Т. Адамс, Элайджа Александр, Ганс Ф. Александр, Лорин Альварез, Бурк Армстронг, Рон Боттитта, Эрл Х. Баллок

Описание: Джон и Джейн женаты не так долго, но уже утомлены своим браком. Им кажется, что они знают друг о друге все. Но есть кое-что, что каждый предпочитает держать при себе: оба они — наемные убийцы, которые тайно путешествуют по миру, выполняя опасные миссии. Эти отдельные тайные приключения становятся их общей судьбой в тот момент, когда Джейн получает заказ на Джона, а Джон на Джейн.

Рейтинг на Кинопоиск:7.584
Рейтинг на IMDB:6.4/10
Рейтинг MPAA:PG-13

Рип-от GD15091995.

Видео: 1280x544(2:35:1), 23.976 fps, MPEG4 AVC (x264) ,~2578 kbps avg, 0.154 bit/pixel.
Аудио №1:(Русский);48 kHz, AC3, 3/2 (L,C,R,l,r) + LFE ch, ~ 448.00 kbps avg.
Аудио №2:(Английский);48 kHz, AC3, 3/2 (L,C,R,l,r) + LFE ch, ~ 448.00 kbps avg.

Считается, что съёмки этого фильма послужили началом романтических отношений Питта и Джоли, результатом которых стал развод Питта со своей женой Дженифер Анистон.
Джон Смит и Джейн Смит — английские имена, используемые полицией, если настоящее имя неизвестно. Также используется для анонимной записи в отельных книгах регистрации.
Существует две версии постера к фильму — на одной Смиты были с оружием, а на второй — без.
Джейн Смит (Анджелина Джоли) изначально должна была играть Николь Кидман. Гвен Стефани также рассматривалась на эту роль. Также предлагались кандидатуры Кэтрин Зета-Джонс и Кейт Бланшетт.
Роль мистера Смита изначально предполагалась для Джонни Деппа, однако актер был настолько нагружен другими проектами, что предпочел отклонить это предложение, следующий претендент на роль — настоящий Смит — Уилл Смит.
Брэд Питт покинул проект после того, как из него ушла Николь Кидман. Однако, как только согласие на роль дала Анджелина Джоли, актёр вновь подтвердил своё участие.
Для того, чтобы получить приемлемый для проката подобной картины рейтинг (PG-13), создателям картины пришлось вырезать постельную сцену между персонажами Питта и Джоли.
Фильм содержит элементы двух предыдущих «Мистера и миссис Смит», эксцентрической комедии Альфреда Хичкока 1941 г. и телесериала 1996 г.
Фильм снимался в Сан Марино, штат Калифорния.
Busta Rhymes снялся в клипе по мотивам фильма «Мистер и миссис Смит», на песню «I Love My Chick», в роли Мистера Смита. Его друга сыграл Dr. Dre
В разгар съёмок ленты Питт на 3 месяца оставил проект, чтобы сняться в фильме «Двенадцать друзей Оушена».
На футболке у заложника — принт с логотипом «Бойцовский клуб (фильм)», в котором так же снимался Брэд Питт.

Формат: Matroska
Размер файла: 2,91 Гбайт
Продолжительность: 1 ч. 59 м.
Общий поток: 3475 Кбит/сек
Название фильма: Mr.& Mrs. Smith 2005
Дата кодирования: UTC 2011-02-20 21:55:52
Программа кодирования: mkvmerge v3.4.0 ('Rapunzel') сборка от 2011 09:38:20
Библиотека кодирования: libebml v0.8.0 + libmatroska v0.9.0
Обложка: Yes

Видео
Идентификатор: 1
Формат: AVC
Формат/Информация: Advanced Video Codec
Профиль формата:
Параметр CABAC формата: Да
Параметр ReFrames формата: 9 кадры
Идентификатор кодека: V_MPEG4/ISO/AVC
Продолжительность: 1 ч. 59 м.
Битрейт: 2578 Кбит/сек
Ширина: 1280 пикс.
Высота: 544 пикс.
Соотношение сторон: 2,35:1
Частота кадров: 23,976 кадр/сек
Цветовое пространство: YUV
Подвыборка цветности: 4:2:0
Битовая глубина: 8 бит
Тип развёртки: Прогрессивная
Бит/(Пиксели*Кадры): 0.154
Размер потока: 2,10 Гбайт (72%)
Заголовок: Mr.& Mrs. Smith
Библиотека кодирования: x264 core 105 r1732 2b04482
Настройки программы: cabac=1 / ref=9 / deblock=1:-3:-2 / analyse=0x3:0x133 / me=umh / subme=10 / psy=1 / psy_rd=1.00:0.00 / mixed_ref=1 / me_range=32 / chroma_me=1 / trellis=2 / 8x8dct=1 / cqm=0 / deadzone=21,11 / fast_pskip=0 / chroma_qp_offset=-2 / threads=6 / sliced_threads=0 / nr=0 / decimate=1 / interlaced=0 / constrained_intra=0 / bframes=8 / b_pyramid=2 / b_adapt=2 / b_bias=0 / direct=3 / weightb=1 / open_gop=0 / weightp=2 / keyint=250 / keyint_min=23 / scenecut=40 / intra_refresh=0 / rc_lookahead=90 / rc=2pass / mbtree=1 / bitrate=2578 / ratetol=1.0 / qcomp=0.70 / qpmin=10 / qpmax=51 / qpstep=4 / cplxblur=20.0 / qblur=0.5 / ip_ratio=1.40 / aq=2:0.90 / zones=161759,172589,q=30
Язык: English
Коэффициенты матрицы: BT.709-5, BT.1361, IEC 61966-2-4 709, SMPTE RP177

Аудио #1
Идентификатор: 2
Формат: AC-3
Формат/Информация: Audio Coding 3
Расширение режима: CM (complete main)
Идентификатор кодека: A_AC3
Продолжительность: 1 ч. 59 м.
Вид битрейта: Постоянный
Битрейт: 448 Кбит/сек
Канал(ы): 6 канала(ов)
Расположение каналов: Front: L C R, Side: L R, LFE
Частота: 48,0 КГц
Битовая глубина: 16 бит
Метод сжатия: С потерями
Размер потока: 384 Мбайт (13%)
Заголовок: Dubljaz, 48 kHz, AC3, 3/2 (L,C,R,l,r) + LFE ch, ~ 448.00 kbps avg
Язык: Russian

Аудио #2
Идентификатор: 3
Формат: AC-3
Формат/Информация: Audio Coding 3
Расширение режима: CM (complete main)
Идентификатор кодека: A_AC3
Продолжительность: 1 ч. 59 м.
Вид битрейта: Постоянный
Битрейт: 448 Кбит/сек
Канал(ы): 6 канала(ов)
Расположение каналов: Front: L C R, Side: L R, LFE
Частота: 48,0 КГц
Битовая глубина: 16 бит
Метод сжатия: С потерями
Размер потока: 384 Мбайт (13%)
Заголовок: Original, 48 kHz, AC3, 3/2 (L,C,R,l,r) + LFE ch, ~ 448.00 kbps avg
Язык: English

Текст #1
Идентификатор: 4
Формат: UTF-8
Идентификатор кодека: S_TEXT/UTF8
Идентификатор кодека/Информация: UTF-8 Plain Text
Язык: Russian

Текст #2
Идентификатор: 5
Формат: UTF-8
Идентификатор кодека: S_TEXT/UTF8
Идентификатор кодека/Информация: UTF-8 Plain Text
Язык: English

Меню
00:00:00.000: en:1.Main Titles
00:02:04.583: en:2.Bogota
00:03:37.843: en:3.Does it Dance?
00:06:29.431: en:4.Beginner's Luck
00:09:07.630: en:5.Five or Six Years Later...
00:14:13.811: en:6.Peas, and Not Much More
00:17:16.243: en:7.Secrets
00:22:50.786: en:8.Playing Picture Perfect
00:25:22.855: en:9.Tank
00:34:50.130: en:10.Lexington Avenue
00:39:37.291: en:11.Dinner at Seven
00:44:42.346: en:12.Separates, But Equals
00:50:13.427: en:13.War
00:52:55.589: en:14.All Means Necessary
00:56:03.068: en:15.Bluffing?
01:00:52.565: en:16.Newly-Formed Theory
01:05:59.747: en:17.Back to Basics
01:07:55.738: en:18.Mr. and Mrs. Smith
01:17:30.437: en:19.John, Meet Jane
01:23:57.240: en:20.Evasive Driving
01:29:05.090: en:21.Testing Eddie
01:31:27.524: en:22.Left, Please
01:35:48.242: en:23.The Bait
01:41:37.258: en:24.Till Death Do Us Part
01:46:02.147: en:25.Here With You
01:50:01.762: en:26.Together
01:51:21.758: en:27.That's Marriage
01:52:26.573: en:28.End Titles











реклама партнёра


Вернуться к началу
 Профиль Отправить личное сообщение  
 
   Похожие торренты   Автор   Торрент   Размер 
В этой теме нет новых непрочитанных сообщений. Смит «Ураган» / Hurricane Smith [боевик, драма, 1991] VHSRip, Mvo

salma3

4 | 3

1.17 ГБ

В этой теме нет новых непрочитанных сообщений. Невада Смит / Nevada Smith [Вестерн, 1966] WEB-DL 720p, Mvo

salma3

36 | 1

4.27 ГБ

В этой теме нет новых непрочитанных сообщений. Миссис Даутфайр / Mrs. Doubtfire [мелодрама, комедия, семейный, 1993] HDRip, Mvo

salma3

71 | 2

1.45 ГБ

В этой теме нет новых непрочитанных сообщений. Крупным планом. Уилл Смит / Close Up. Will Smith [документальный, биография, музыка, кинематограф, 2011] SATRip, Dvo

salma3

0 | 7

303.53 МБ

В этой теме нет новых непрочитанных сообщений. Мальчики миссис Браун / Mrs. Brown's Boys D'Movie [Комедия, 2014] HDRip, avo

Dracon

33 | 6

1.37 ГБ

В этой теме нет новых непрочитанных сообщений. Бешеные гонки / Drive Hard (Брайан Тренчард-Смит) [боевик, криминал, комедия, 2014] HDRip, mvo [официльное]

Dracon

2519 | 162

1.37 ГБ

В этой теме нет новых непрочитанных сообщений. Мистер Крутой / Yat goh ho yan [боевик, комедия, криминал, 1996] WEB-DL 1080p, Mvo

salma3

6 | 2

4.36 ГБ


Начать новую тему Ответить на тему  [ 1 сообщение ] 




Для Мосгорсуда, Роскомнадзора и рекламодателей:: mosgorsud-torrent[собачка]yandex.ru