Торрент файл
скачать торрент магнет ссылка Добавлен: 30 дек 2017, 14:01
Размер: 2.57 ГБ
Сидеров: 17
Личеров: 5
Статус: (salma3)
Автор

СообщениеДобавлено: 30 дек 2017, 14:01 

Не в сети
Супермодератор
Аватара пользователя
Дата регистрации:
15 фев 2012, 16:44
Возраст: 28
Спасибо: 7163 / 2147
Сообщения: 61724
Год выхода: 1990
Жанр: Фэнтези, драма, мелодрама
Режиссер: Тим Бёртон

В ролях: Джонни Депп, Вайнона Райдер, Дайэнн Уист, Алан Аркин, Энтони Майкл Холл, Кэти Бейкер, Роберт Оливери, Кончата Феррелл, Кэролайн Аарон, Дик Энтони Уильямс

О фильме: Одинокий старый ученый создал человеческое существо. Но не успел доделать его до конца и умер. У сотворенного им молодого человека не хватает рук — вместо них у него нечто вроде ножниц — и он вынужден жить в заброшенном доме в полном одиночестве. Но вот однажды он знакомится с прекрасной девушкой, которая смогла оценить его доброе сердце…



Страна: США
Продолжительность: 01:45:00
Перевод: Профессиональный [многоголосый]

Файл
Качество: BDRip-AVC
Видео: MPEG-4 AVC, 2600 Кбит/с, 1024x552
Звук: Русский (AC3, 6 ch, 448 Кбит/с), английский (AC3, 4 ch, 448 Кбит/с)
Субтитры: Русские, английские
Навигация по главам: Есть

Семпл

raw [info]: 1024x552p 1:1 @ 24000/1001 fps (cfr)
x264 [info]: using SAR=1/1
x264 [info]: using cpu capabilities: MMX2 SSE2Fast LZCNT
x264 [info]: profile High, level 4.1
x264 [info]: frame I:923 Avg QP:17.83 size: 95864
x264 [info]: frame P:30587 Avg QP:20.64 size: 28041
x264 [info]: frame B:119557 Avg QP:22.34 size: 9215
x264 [info]: consecutive B-frames: 1.4% 1.9% 7.0% 14.1% 15.8% 49.6% 5.1% 1.6% 1.2% 0.6% 0.6% 0.6% 0.1% 0.2% 0.1% 0.0% 0.1%
-----
бщее
Уникальный идентификатор : 225255434955377572289844598956509858297 (0xA9769E653297E70297AD258222D389F9)
Полное имя : D:\ExKinoRay\Edward.Scissorhands.1990.BDRip-AVC.ExKinoRay.mkv
Формат : Matroska
Версия формата : Version 2
Размер файла : 2,57 Гбайт
Продолжительность : 1 ч. 45 м.
Общий поток : 3498 Кбит/сек
Дата кодирования : UTC 2017-12-30 07:44:47
Программа кодирования : mkvmerge v7.8.0 ('River Man') 32bit built on Apr 3 2015 12:11:22
Библиотека кодирования : libebml v1.3.1 + libmatroska v1.4.2

Видео
Идентификатор : 1
Формат : AVC
Формат/Информация : Advanced Video Codec
Профиль формата : High@L4.1
Параметр CABAC формата : Да
Параметр ReFrames формата : 14 кадров
Идентификатор кодека : V_MPEG4/ISO/AVC
Продолжительность : 1 ч. 45 м.
Битрейт : 2600 Кбит/сек
Ширина : 1024 пикселя
Высота : 552 пикселя
Соотношение сторон : 1,85:1
Режим частоты кадров : Постоянный
Частота кадров : 23,976 (24000/1001) кадра/сек
Цветовое пространство : YUV
Субдискретизация насыщенности : 4:2:0
Битовая глубина : 8 бит
Тип развёртки : Прогрессивная
Бит/(Пиксели*Кадры) : 0.192
Размер потока : 1,86 Гбайт (72%)
Библиотека кодирования : x264 core 148 r2638 7599210
Настройки программы : cabac=1 / ref=14 / deblock=1:-3:-2 / analyse=0x3:0x113 / me=umh / subme=10 / psy=1 / psy_rd=1.00:0.10 / mixed_ref=1 / me_range=32 / chroma_me=1 / trellis=2 / 8x8dct=1 / cqm=0 / deadzone=21,11 / fast_pskip=0 / chroma_qp_offset=-3 / threads=4 / lookahead_threads=1 / sliced_threads=0 / nr=0 / decimate=0 / interlaced=0 / bluray_compat=0 / constrained_intra=0 / bframes=16 / b_pyramid=2 / b_adapt=2 / b_bias=0 / direct=3 / weightb=1 / open_gop=0 / weightp=2 / keyint=250 / keyint_min=23 / scenecut=40 / intra_refresh=0 / rc=2pass / mbtree=0 / bitrate=2600 / ratetol=1.0 / qcomp=0.60 / qpmin=0 / qpmax=69 / qpstep=4 / cplxblur=20.0 / qblur=0.5 / ip_ratio=1.40 / pb_ratio=1.30 / aq=3:1.00
Язык : English
Default : Да
Forced : Нет
Цветовой диапазон : Limited
Основные цвета : BT.709
Характеристики трансфера : BT.709
Коэффициенты матрицы : BT.709

Аудио #1
Идентификатор : 2
Формат : AC-3
Формат/Информация : Audio Coding 3
Расширение режима : CM (complete main)
Параметр Endianness формата : Big
Идентификатор кодека : A_AC3
Продолжительность : 1 ч. 45 м.
Вид битрейта : Постоянный
Битрейт : 448 Кбит/сек
Каналы : 6 каналов
Расположение каналов : Front: L C R, Side: L R, LFE
Частота : 48,0 КГц
Частота кадров : 31,250 кадров/сек (1536 spf)
Метод сжатия : С потерями
Размер потока : 336 Мбайт (13%)
Язык : Russian
Default : Да
Forced : Нет

Аудио #2
Идентификатор : 3
Формат : AC-3
Формат/Информация : Audio Coding 3
Расширение режима : CM (complete main)
Параметр Endianness формата : Big
Идентификатор кодека : A_AC3
Продолжительность : 1 ч. 45 м.
Вид битрейта : Постоянный
Битрейт : 448 Кбит/сек
Каналы : 4 канала
Расположение каналов : Front: L R, Side: L R
Частота : 48,0 КГц
Частота кадров : 31,250 кадров/сек (1536 spf)
Метод сжатия : С потерями
Размер потока : 336 Мбайт (13%)
Язык : English
Default : Нет
Forced : Нет

Текст #1
Идентификатор : 4
Формат : UTF-8
Идентификатор кодека : S_TEXT/UTF8
Идентификатор кодека/Информация : UTF-8 Plain Text
Язык : Russian
Default : Да
Forced : Нет

Текст #2
Идентификатор : 5
Формат : UTF-8
Идентификатор кодека : S_TEXT/UTF8
Идентификатор кодека/Информация : UTF-8 Plain Text
Язык : English
Default : Нет
Forced : Нет

Меню
00:00:00.000 : en:Main Titles
00:02:44.956 : en:A Story About Snow
00:05:18.109 : en:Avon Calling
00:12:24.619 : en:Peg Meets Edward
00:16:35.620 : en:Local Gossip
00:28:31.501 : en:Edward's Talent
00:31:26.301 : en:The Neighbors
00:33:28.256 : en:The Inventor
00:35:28.668 : en:Backyard Barbecue
00:38:14.876 : en:Remembering
00:39:47.677 : en:Kim
00:45:03.409 : en:Show and Tell
00:47:37.855 : en:More Talents
00:54:37.566 : en:Edward on Tv
00:56:56.538 : en:A Beauty Salon
01:01:17.799 : en:The Need for Money
01:04:39.042 : en:Drop Your Weapons
01:09:21.449 : en:A Ruined Reputation
01:15:50.337 : en:The Ice Angel
01:19:04.156 : en:Edward Gets Mad
01:24:56.633 : en:A Christmas Past
01:27:05.554 : en:Jim's Revenge
01:37:03.359 : en:The Story's End
01:39:45.813 : en:End Titles


Релиз от: Rip by:


_________________
Проголосуй за трекер Открытый торрент трекер - RUS-MEDIA.ORG

Проголосуй Открытый торрент трекер - RUS-MEDIA.ORG


Вернуться к началу
 Профиль Отправить личное сообщение  
 
   Похожие торренты   Автор   Торрент   Размер 
В этой теме нет новых непрочитанных сообщений. Ножницы / Scissors [триллер, драма, 1990] BDRip-AVC, Mvo

salma3

24 | 15

1.45 ГБ

В этой теме нет новых непрочитанных сообщений. Легенды осени / Legends Of The Fall (Эдвард Цвик / Edward Zwick) [1994, США, драма, мелодрама, военный, HDTVRip 720p] DUB MVO Sub rus

marya111

0 | 0

7.72 ГБ

В этой теме нет новых непрочитанных сообщений. Ножницы / Scissors [Триллер, драма, 1991] BDRip 720p, Mvo+Dvo+Avo

salma3

30 | 25

4.98 ГБ

В этой теме нет новых непрочитанных сообщений. Сны Акиры Куросавы / Drams / Yume [фэнтези, драма, 1990] BDRip, Mvo

salma3

98 | 22

2.18 ГБ

В этой теме нет новых непрочитанных сообщений. Разочарованная / La désenchantée [драма, мелодрама, 1990] BDRip 720p, Avo

salma3

0 | 0

6.72 ГБ

В этой теме нет новых непрочитанных сообщений. Побег из кинотеатра «Свобода» / Ucieczka z kina «Wolnosc» [Драма, комедия, фэнтези, 1990] BDRip 720p, Avo

salma3

21 | 10

2.99 ГБ

В этой теме нет новых непрочитанных сообщений. Русский отдел / The Russia House [триллер, драма, мелодрама, 1990] BDRip, Mvo

salma3

22 | 8

2.02 ГБ


Начать новую тему Ответить на тему  [ 1 сообщение ] 




Для Мосгорсуда, Роскомнадзора и рекламодателей:: mosgorsud-torrent[собачка]yandex.ru
cron