Торрент файл
скачать торрент магнет ссылка Добавлен: 16 апр 2011, 21:25
Размер: 1.45 ГБ
Сидеров: 5
Личеров: 4
Автор

СообщениеДобавлено: 16 апр 2011, 21:25 

Не в сети
Супермодератор
Аватара пользователя
Дата регистрации:
22 май 2010, 11:03
Возраст: 32
Спасибо: 7690 / 13
Сообщения: 49871
Циклон / Cyclone



Перевод: Профессиональный (двухголосый, закадровый)
Субтитры: Отсутствуют
Формат: VHSRip, AVI, XviD, AC3
Страна: США
Режиссер: Фред Олен Рэй
Жанр: Фантастика, Боевик
Продолжительность: 01:26:13
Год выпуска: 1987

В ролях: Хезер Томас, Джеффри Комбс, Эшли Ферраре, Дар Робинсон, Мартин Бесвик, Роберт Куорри, Мартин Ландау, Ханц Холл, Трой Донахью, Майкл Рейган

Описание: «Циклон» — прототип суперсовременного боевого мотоцикла, оснащённого ракетницами и лазерными пушками. Конечно же, такое чудо техники стоимостью в пять миллионов долларов не должно попасть в плохие руки, и проследить за этим придётся самому разработчику мотоцикла Рику и его подружке Тэри.


Рейтинг MPAA: R


Видео: 640x480 (1.33:1), 23.976 fps, XviD MPEG-4 ~2214 kbps avg, 0.301 bit/pixel
Аудио: 48 kHz, AC3 Dolby Digital, 2 ch, ~192.00 kbps avg

Общее
Полное имя: E:\Циклон\Cyclone.1987.avi
Формат: AVI
Формат/Информация: Audio Video Interleave
Размер файла: 1,45 Гбайт
Продолжительность: 1 ч. 26 м.
Общий поток: 2416 Кбит/сек
Жанр: Action
Программа кодирования: VirtualDubMod 1.5.10.2 (build 2542/release)
Правообладатель: RG Uralmix

Видео
Идентификатор: 0
Формат: MPEG-4 Visual
Профиль формата: Advanced Simple@L5
Параметр BVOP формата: 2
Параметр QPel формата: Нет
Параметр GMC формата: Без точки перехода
Параметр матрицы формата: Выборочная
Режим смешивания: Сжатый битовый поток
Идентификатор кодека: XVID
Идентификатор кодека/Подсказка: XviD
Продолжительность: 1 ч. 26 м.
Битрейт: 2214 Кбит/сек
Ширина: 640 пикс.
Высота: 480 пикс.
Соотношение сторон: 4:3
Частота кадров: 23,976 кадр/сек
Цветовое пространство: YUV
Подвыборка цветности: 4:2:0
Битовая глубина: 8 бит
Тип развёртки: Прогрессивная
Метод сжатия: С потерями
Бит/(Пиксели*Кадры): 0.301
Размер потока: 1,33 Гбайт (92%)
Библиотека кодирования: XviD 57

Аудио
Идентификатор: 1
Формат: AC-3
Формат/Информация: Audio Coding 3
Расширение режима: CM (complete main)
Идентификатор кодека: 2000
Продолжительность: 1 ч. 26 м.
Вид битрейта: Постоянный
Битрейт: 192 Кбит/сек
Канал(ы): 2 канала(ов)
Расположение каналов: Front: L R
Частота: 48,0 КГц
Битовая глубина: 16 бит
Метод сжатия: С потерями
Размер потока: 118 Мбайт (8%)
Выравнивание: Разделение по промежуткам
Продолжительность промежутка: 42мс. (1,00 видеокадр)
Время предзагрузки промежутка: 500 ms













реклама партнёра


Вернуться к началу
 Профиль Отправить личное сообщение  
 
   Похожие торренты   Автор   Торрент   Размер 
В этой теме нет новых непрочитанных сообщений. Истребители мужчин / Mankillers [Боевик, 1987] VHSRip, Avo

salma3

1 | 0

1.44 ГБ

В этой теме нет новых непрочитанных сообщений. The Vanessa Obsession (John Stagliano, LBO) [1987 г., All Sex, VHSRip]

salma3

0 | 0

1.25 ГБ

В этой теме нет новых непрочитанных сообщений. Изгой / The Outsider [фантастика, боевик, 1998] VHSRip, Avo

salma3

21 | 3

700.04 МБ

В этой теме нет новых непрочитанных сообщений. Хищник / Predator [фантастика, боевик, приключения, 1987] BDRip-AVC, Dub+Mvo+Avo+Sub

salma3

103 | 58

2.18 ГБ

В этой теме нет новых непрочитанных сообщений. Внутреннее пространство / Innerspace [фантастика, фэнтези, боевик, 1987] HDRip-AVC, Dub

salma3

49 | 13

2.17 ГБ

В этой теме нет новых непрочитанных сообщений. Скрытые / The Hidden [ужасы, фантастика, боевик, 1987] BDRip 1080p, Dvo

salma3

28 | 17

10.1 ГБ

В этой теме нет новых непрочитанных сообщений. Хищник / Predator [фантастика, боевик, триллер, 1987] BDRip 1080p, Dub+Mvo+Dvo+Avo+Sub

salma3

65 | 24

12.38 ГБ


Начать новую тему Ответить на тему  [ 1 сообщение ] 




Для Мосгорсуда, Роскомнадзора и рекламодателей:: mosgorsud-torrent[собачка]yandex.ru