Торрент файл
скачать торрент магнет ссылка Добавлен: 29 дек 2017, 17:26
Размер: 2.33 ГБ
Сидеров: 6
Личеров: 3
Статус: (salma3)
Автор

СообщениеДобавлено: 29 дек 2017, 17:26 

Не в сети
Супермодератор
Аватара пользователя
Дата регистрации:
15 фев 2012, 16:44
Возраст: 28
Спасибо: 7226 / 2147
Сообщения: 68270
Год выхода: 1977
Жанр: Вестерн
Режиссер: Джей Ли Томпсон / J. Lee Thompson

В ролях: Чарльз Бронсон, Джек Уорден, Уилл Сэмпсон, Клинт Уокер, Слим Пикенс, Стюарт Уитман, Ким Новак, Джон Кэррэдайн

О фильме:
В те времена, когда на диком западе царили дикие нравы, а бледнолицый был злейшим врагом краснокожего, Джеймс Отис, он же "Дикий Билл" Хикок (Чарльз Бронсон), - благородный разбойник, одержимый ночными кошмарами, решает вернуться в местечко Блэк Хиллс в поисках золота. Там он обнаруживает, что страшный бизон из его сновидений, судя по рассказам местных жителей, есть на самом деле. Существует ли зловещее животное в реальности или это лишь пугало для желающих разбогатеть на приисках? В компании друга Чарли (Джек Уорден), Дикий Билл отправляется на поиски белого бизона в горы, где неожиданно встречает коллегу по смертельно опасной охоте - индейского вождя по имени Бешеный Конь.



Страна: США
Продолжительность: 01:37:23
Перевод: Профессиональный (многоголосый, закадровый) + Профессиональный (двуголосый закадровый)
Релиз от: Охрана (NNMCLUB)

Файл
Качество: BDRip-AVC
Видео: AVC/H.264, 1024x576, ~2850 Kbps
Аудио 1: Русский, AC3, 2 ch, 192 Kbps, 48.0 kHz (MVO, R5)
Аудио 2: Русский, AC3, 2 ch, 192 Kbps, 48.0 kHz (DVO, НТВ+)
Аудио 3: Английский, AC3, 2 ch, 192 Kbps, 48.0 kHz (Оригинал)

General
Unique ID : 219363716713303457416684888306003597368 (0xA507EA4239C3304B8C119C604349D838)
Complete name : F:DownloadsБелый бизон. 1977. NNMCLUB.mkv
Format : Matroska
Format version : Version 4 / Version 2
File size : 2.33 GiB
Duration : 1h 37mn
Overall bit rate : 3 427 Kbps
Encoded date : UTC 2017-12-24 22:17:05
Writing application : mkvmerge v7.0.0 ('Where We Going') 32bit built on Jun 9 2014 15:08:34
Writing library : libebml v1.3.0 + libmatroska v1.4.1
DURATION : 01:37:23.040000000
NUMBER_OF_FRAMES : 182595
NUMBER_OF_BYTES : 140232960
_STATISTICS_WRITING_APP : mkvmerge v7.0.0 ('Where We Going') 32bit built on Jun 9 2014 15:08:34
_STATISTICS_WRITING_DATE_UTC : 2017-12-24 22:17:05
_STATISTICS_TAGS : BPS DURATION NUMBER_OF_FRAMES NUMBER_OF_BYTES

Video
ID : 1
Format : AVC
Format/Info : Advanced Video Codec
Format profile : High@L4.1
Format settings, CABAC : Yes
Format settings, ReFrames : 9 frames
Codec ID : V_MPEG4/ISO/AVC
Duration : 1h 37mn
Bit rate : 2 850 Kbps
Width : 1 024 pixels
Height : 576 pixels
Display aspect ratio : 16:9
Frame rate mode : Constant
Frame rate : 23.976 fps
Color space : YUV
Chroma subsampling : 4:2:0
Bit depth : 8 bits
Scan type : Progressive
Bits/(Pixel*Frame) : 0.202
Stream size : 1.89 GiB (81%)
Title : The White Buffalo
Writing library : x264 core 125 r2208 d9d2288
Encoding settings : cabac=1 / ref=9 / deblock=1:-1:-1 / analyse=0x3:0x133 / me=umh / subme=10 / psy=1 / psy_rd=1.00:0.10 / mixed_ref=1 / me_range=32 / chroma_me=1 / trellis=2 / 8x8dct=1 / cqm=0 / deadzone=21,11 / fast_pskip=0 / chroma_qp_offset=-3 / threads=6 / lookahead_threads=1 / sliced_threads=0 / nr=0 / decimate=0 / interlaced=0 / bluray_compat=0 / constrained_intra=0 / bframes=7 / b_pyramid=2 / b_adapt=2 / b_bias=0 / direct=3 / weightb=1 / open_gop=0 / weightp=2 / keyint=250 / keyint_min=25 / scenecut=40 / intra_refresh=0 / rc_lookahead=60 / rc=2pass / mbtree=1 / bitrate=2850 / ratetol=1.0 / qcomp=0.60 / qpmin=0 / qpmax=69 / qpstep=4 / cplxblur=20.0 / qblur=0.5 / ip_ratio=1.40 / aq=1:1.00
Language : English
Default : Yes
Forced : No

Audio #1
ID : 2
Format : AC-3
Format/Info : Audio Coding 3
Mode extension : CM (complete main)
Format settings, Endianness : Big
Codec ID : A_AC3
Duration : 1h 37mn
Bit rate mode : Constant
Bit rate : 192 Kbps
Channel(s) : 2 channels
Channel positions : Front: L R
Sampling rate : 48.0 KHz
Bit depth : 16 bits
Compression mode : Lossy
Stream size : 134 MiB (6%)
Title : Многоголосый закадровый, R5
Language : Russian
Default : Yes
Forced : No

Audio #2
ID : 3
Format : AC-3
Format/Info : Audio Coding 3
Mode extension : CM (complete main)
Format settings, Endianness : Big
Codec ID : A_AC3
Duration : 1h 37mn
Bit rate mode : Constant
Bit rate : 192 Kbps
Channel(s) : 2 channels
Channel positions : Front: L R
Sampling rate : 48.0 KHz
Bit depth : 16 bits
Compression mode : Lossy
Stream size : 134 MiB (6%)
Title : Двуголосый закадровый, НТВ+
Language : Russian
Default : No
Forced : No

Audio #3
ID : 4
Format : AC-3
Format/Info : Audio Coding 3
Mode extension : CM (complete main)
Format settings, Endianness : Big
Codec ID : A_AC3
Duration : 1h 37mn
Bit rate mode : Constant
Bit rate : 192 Kbps
Channel(s) : 2 channels
Channel positions : Front: L R
Sampling rate : 48.0 KHz
Bit depth : 16 bits
Compression mode : Lossy
Stream size : 134 MiB (6%)
Title : Оригинал
Language : English
Default : No
Forced : No


_________________
Проголосуй за трекер Открытый торрент трекер - RUS-MEDIA.ORG

Проголосуй Открытый торрент трекер - RUS-MEDIA.ORG


Вернуться к началу
 Профиль Отправить личное сообщение  
 
   Похожие торренты   Автор   Торрент   Размер 
В этой теме нет новых непрочитанных сообщений. Американский бизон / American Buffalo [драма, 1996] BDRip 720p, Dvo

salma3

14 | 5

4.37 ГБ

В этой теме нет новых непрочитанных сообщений. Американский бизон / American Buffalo [драма, 1996] BDRip 1080p, Dvo

salma3

30 | 8

7.75 ГБ

В этой теме нет новых непрочитанных сообщений. Там, где бродит бизон / Where the Buffalo Roam [Комедия, биография, 1980] BDRip 1080p, Mvo

salma3

72 | 9

7.76 ГБ

В этой теме нет новых непрочитанных сообщений. Белый призрак / White Ghost [Боевик, приключения, военный, 1988] BDRip-AVC, Mvo

salma3

70 | 40

2.78 ГБ

В этой теме нет новых непрочитанных сообщений. Белый призрак / White Ghost [Боевик, приключения, военный, 1988] BDRip 1080p, Mvo

salma3

12 | 13

13.48 ГБ

В этой теме нет новых непрочитанных сообщений. Белый клык 2: Легенда о белом волке / White Fang 2: Myth of the White Wolf [Приключения, семейный, 1994] WEB-DL 1080p, Mvo

salma3

10 | 9

9.67 ГБ

В этой теме нет новых непрочитанных сообщений. Белый клык 2: Легенда о белом волке / White Fang 2: Myth of the White Wolf [приключения, семейный, 1994] WEB-DL 720p, Mvo

salma3

176 | 84

3.38 ГБ


Начать новую тему Ответить на тему  [ 1 сообщение ] 




Для Мосгорсуда, Роскомнадзора и рекламодателей:: mosgorsud-torrent[собачка]yandex.ru
cron