Торрент файл
скачать торрент магнет ссылка Добавлен: 29 дек 2017, 15:17
Размер: 1.45 ГБ
Сидеров: 24
Личеров: 6
Статус: (salma3)
Автор

СообщениеДобавлено: 29 дек 2017, 15:17 

Не в сети
Супермодератор
Аватара пользователя
Дата регистрации:
15 фев 2012, 16:44
Возраст: 29
Спасибо: 7328 / 2147
Сообщения: 73276
Год выхода: 1996
Жанр: драма, мелодрама, комедия
Режиссер: Том Маклафлин

В ролях: Шелли Лонг, Бэрри Боствик, Нэйтан Лоуренс, Нэнси Маклафлин, Майкл Э. Найт, Брюс Кирби, Ричард К. Олсен, Дженелл МакЛеод, Кит Флиппен, Ребекка Коон

О фильме:
Элизабет — городской адвокат. После того, как умерла ее мама, отец превратил свой дом в своего рода круглогодичный замок Санта Клауса.



Производство: США / Carroll Newman Productions, Hearst Entertainment Productions
Продолжительность: 01:28:27
Перевод: авторский одноголосый [Антон Алексеев]

Файл
Качество: DVDRip
Видео: XviD, 720x560 (1.286), 25.000 fps, 1693 kbps, 0.168 bit/pixel
Аудио #1: русский, AC3 2.0, 48 kHz, 192 kbps
Аудио #2: английский, AC3 5.1, 48 kHz, 448 kbps



Формат : AVI
Формат/Информация : Audio Video Interleave
Размер файла : 1,45 Гбайт
Продолжительность : 1 ч. 28 м.
Общий поток : 2348 Кбит/сек
Программа кодирования : VirtualDubModRus 1.5.10.2 (build 2542/release)
Библиотека кодирования : VirtualDubMod build 2542/release

Видео
Идентификатор : 0
Формат : MPEG-4 Visual
Профиль формата : Advanced Simple@L5
Параметр BVOP формата : 2
Параметр QPel формата : Нет
Параметр GMC формата : Без точки перехода
Параметр матрицы формата : Default (MPEG)
Идентификатор кодека : XVID
Идентификатор кодека/Подсказка : XviD
Продолжительность : 1 ч. 28 м.
Битрейт : 1693 Кбит/сек
Ширина : 720 пикселей
Высота : 560 пикселей
Соотношение сторон : 1,286
Частота кадров : 25,000 кадров/сек
Цветовое пространство : YUV
Субдискретизация насыщенности : 4:2:0
Битовая глубина : 8 бит
Тип развёртки : Прогрессивная
Метод сжатия : С потерями
Бит/(Пиксели*Кадры) : 0.168
Размер потока : 1,05 Гбайт (72%)
Библиотека кодирования : XviD 1.2.1 (UTC 2008-12-04)

Аудио #1
Идентификатор : 1
Формат : AC-3
Формат/Информация : Audio Coding 3
Расширение режима : CM (complete main)
Параметр Endianness формата : Big
Идентификатор кодека : 2000
Продолжительность : 1 ч. 28 м.
Вид битрейта : Постоянный
Битрейт : 192 Кбит/сек
Каналы : 2 канала
Расположение каналов : Front: L R
Частота : 48,0 КГц
Метод сжатия : С потерями
Размер потока : 121 Мбайт (8%)
Выравнивание : Разделение по промежуткам
Продолжительность промежутка : 40 мс. (1,00 видеокадр)
Время предзагрузки промежутка : 500 мс.

Аудио #2
Идентификатор : 2
Формат : AC-3
Формат/Информация : Audio Coding 3
Расширение режима : CM (complete main)
Параметр Endianness формата : Big
Идентификатор кодека : 2000
Продолжительность : 1 ч. 28 м.
Вид битрейта : Постоянный
Битрейт : 448 Кбит/сек
Каналы : 6 каналов
Расположение каналов : Front: L C R, Side: L R, LFE
Частота : 48,0 КГц
Метод сжатия : С потерями
Размер потока : 283 Мбайт (19%)
Выравнивание : Разделение по промежуткам
Продолжительность промежутка : 40 мс. (1,00 видеокадр)
Время предзагрузки промежутка : 500 мс.


_________________
Проголосуй за трекер Открытый торрент трекер - RUS-MEDIA.ORG

Проголосуй Открытый торрент трекер - RUS-MEDIA.ORG


Вернуться к началу
 Профиль Отправить личное сообщение  
 
   Похожие торренты   Автор   Торрент   Размер 
В этой теме нет новых непрочитанных сообщений. Рождество каждый день / Christmas Every Day [фэнтези, комедия, 1996] TVRip-AVC, Mvo

salma3

0 | 0

1.13 ГБ

В этой теме нет новых непрочитанных сообщений. Рождество / This Christmas [драма, мелодрама, комедия, 2007] HDRip, Mvo

salma3

14 | 0

1.45 ГБ

В этой теме нет новых непрочитанных сообщений. Украденное Рождество / Stealing Christmas [драма, мелодрама, комедия, 2003] WEB-DLRip, Dvo

salma3

0 | 0

1.46 ГБ

В этой теме нет новых непрочитанных сообщений. 12 подарков на Рождество / 12 Gifts of Christmas [Комедия, мелодрама, 2015] HDTVRip, Mvo

salma3

166 | 30

1018.74 МБ

В этой теме нет новых непрочитанных сообщений. Как раз под Рождество / Just in Time for Christmas [Комедия, мелодрама, 2015] WEB-DL 720p, Mvo [iTunes]

salma3

641 | 168

3.27 ГБ

В этой теме нет новых непрочитанных сообщений. Как раз под Рождество / Just in Time for Christmas [Комедия, мелодрама, 2015] WEB-DLRip, Mvo [iTunes]

salma3

152 | 13

743.67 МБ

В этой теме нет новых непрочитанных сообщений. Как раз под Рождество / Just in Time for Christmas [Комедия, мелодрама, 2015] WEB-DLRip, Mvo [iTunes]

salma3

1440 | 116

1.46 ГБ


Начать новую тему Ответить на тему  [ 1 сообщение ] 




Для Мосгорсуда, Роскомнадзора и рекламодателей:: mosgorsud-torrent[собачка]yandex.ru
cron