Торрент файл
скачать торрент магнет ссылка Добавлен: 16 апр 2011, 21:24
Размер: 2.19 ГБ
Сидеров: 29
Личеров: 10
Автор

СообщениеДобавлено: 16 апр 2011, 21:24 

Не в сети
Супермодератор
Аватара пользователя
Дата регистрации:
22 май 2010, 11:03
Возраст: 31
Спасибо: 7524 / 13
Сообщения: 49940
Кровь за кровь / Четыре Братa / Four Brothers


Перевод: Профессиональный (полное дублирование), профессиональный (многоголосый, закадровый)
Субтитры:Английские, русские

Формат: HDRip-AVC, MKV, H.264, AC3
Страна: США
Режиссер: Джон Синглтон
Жанр: Боевик, триллер, драма, криминал, детектив
Продолжительность: 01:48:45
Год выпуска: 2005

В ролях: Марк Уолберг, Тайриз Гибсон, Андре Бенджамин, Гаррет Хедлунд, Терренс Ховард, Джош Чарльз, София Вергара, Фионнула Флэнаган, Чиветел Эджиофор, Тараджи П. Хенсон

Описание: Они вернулись домой,чтобы похоронить мать.. и её убийц… Их четверо, они братья, но абсолютно не похожи друг на друга. В детстве их усыновила и воспитала одна и та же женщина. Теперь она мертва, а братья пытаются найти ее убийцу и отплатить ему за пролитую кровь их матери. Чем больше братья занимаются поисками, тем ближе они становятся друг другу, осознавая, что родство душ связывает людей гораздо крепче, чем кровные узы.





Видео: 1024x432(2.35:1), 23.976 кадр/сек, MPEG-4 AVC, 2185 Кбит/с, 0.206 бит/пиксель
Аудио #1: 48 kHz, MPEG Layer 3, 2/0 (L,R) ch, 320.00 Кбит/с [Профессиональный (полное дублирование)]
Аудио #2: 48 kHz, AC3 Dolby Digital, 3/2 (L,C,R,l,r) + LFE ch, 384.00 Кбит/с [Профессиональный (многоголосый, закадровый)]



Релиз от:

Общее
UniqueID/String: 199985822031198870978290079375111576640 (0x9673DE499517DBFEAB4AFEADCBF95C40)
Полное имя: C:\My Downloads\Krov.za.krov.2007.х264.BDRip(AVC)-ed_rez.mkv
Формат: Matroska
Размер файла: 2,19 Гбайт
Продолжительность: 1 ч. 48 м.
Общий поток: 2877 Кбит/сек
Дата кодирования: UTC 2011-02-12 09:19:11
Программа кодирования: mkvmerge v4.4.0 ('Die Wiederkehr') built on Oct 31 2010 21:52:48
Библиотека кодирования: libebml v1.0.0 + libmatroska v1.0.0

Видео
Идентификатор: 1
Формат: AVC
Формат/Информация: Advanced Video Codec
Профиль формата:
Параметр CABAC формата: Да
Параметр ReFrames формата: 8 кадры
Режим смешивания: Header stripping
Идентификатор кодека: V_MPEG4/ISO/AVC
Продолжительность: 1 ч. 48 м.
Битрейт: 2185 Кбит/сек
Ширина: 1024 пикс.
Высота: 432 пикс.
Соотношение сторон: 2,35:1
Частота кадров: 23,976 кадр/сек
Цветовое пространство: YUV
Подвыборка цветности: 4:2:0
Битовая глубина: 8 бит
Тип развёртки: Прогрессивная
Бит/(Пиксели*Кадры): 0.206
Размер потока: 1,61 Гбайт (74%)
Библиотека кодирования: x264 core 112 r1867 22bfd31
Язык: English

Аудио #1
Идентификатор: 2
Формат: MPEG Audio
Версия формата: Version 1
Профиль формата: Layer 3
Режим: Joint stereo
Режим смешивания: Header stripping
Идентификатор кодека: A_MPEG/L3
Идентификатор кодека/Подсказка: MP3
Продолжительность: 1 ч. 48 м.
Вид битрейта: Постоянный
Битрейт: 320 Кбит/сек
Канал(ы): 2 канала(ов)
Частота: 48,0 КГц
Метод сжатия: С потерями
Размер потока: 249 Мбайт (11%)
Заголовок: DUB
Язык: Russian

Аудио #2
Идентификатор: 3
Формат: AC-3
Формат/Информация: Audio Coding 3
Расширение режима: CM (complete main)
Режим смешивания: Header stripping
Идентификатор кодека: A_AC3
Продолжительность: 1 ч. 48 м.
Вид битрейта: Постоянный
Битрейт: 384 Кбит/сек
Канал(ы): 6 канала(ов)
Расположение каналов: Front: L C R, Side: L R, LFE
Частота: 48,0 КГц
Битовая глубина: 16 бит
Метод сжатия: С потерями
Размер потока: 299 Мбайт (13%)
Заголовок: MVO
Язык: Russian

Текст #1
Идентификатор: 4
Формат: UTF-8
Идентификатор кодека: S_TEXT/UTF8
Идентификатор кодека/Информация: UTF-8 Plain Text
Язык: Russian

Текст #2
Идентификатор: 5
Формат: UTF-8
Идентификатор кодека: S_TEXT/UTF8
Идентификатор кодека/Информация: UTF-8 Plain Text
Язык: English









реклама партнёра


Вернуться к началу
 Профиль Отправить личное сообщение  
 
   Похожие торренты   Автор   Торрент   Размер 
В этой теме нет новых непрочитанных сообщений. Кровь за кровь / Four Brothers [боевик, драма, криминал, 2005] BDRip 1080p, Dub+ Mvo+Dvo++Avo+Sub

salma3

107 | 29

10.05 ГБ

В этой теме нет новых непрочитанных сообщений. Молодая кровь / Son of a Gun [боевик, драма, криминал, 2014] HDRip [Студия Пиратского Дубляжа]

Dracon

200 | 12

1.37 ГБ

В этой теме нет новых непрочитанных сообщений. Молодая кровь / Son of a Gun (Джулиус Эйвери) [боевик, драма, криминал, 2014] HDRip, Mvo [iTunes]

Dracon

5 | 0

1.37 ГБ

В этой теме нет новых непрочитанных сообщений. Молодая кровь / Son of a Gun (Джулиус Эйвери) [боевик, драма, криминал, 2014] HDRip, Mvo [iTunes]

Dracon

52 | 0

2.05 ГБ

В этой теме нет новых непрочитанных сообщений. Молодая кровь / La tête haute (Эмманюэль Берко) [драма, 2015] HDRip, Mvo

Dracon

429 | 39

2.05 ГБ

В этой теме нет новых непрочитанных сообщений. Молодая кровь / La tête haute (Эмманюэль Берко) [драма, 2015] HDRip, Mvo

Dracon

3596 | 343

1.37 ГБ

В этой теме нет новых непрочитанных сообщений. Горячая кровь юности / Hot Young Bloods / Pikkeulneun Cheongchun [комедия, драма, 2014] HDRip, dvo

Dracon

40 | 3

1.46 ГБ


Начать новую тему Ответить на тему  [ 1 сообщение ] 




Для Мосгорсуда, Роскомнадзора и рекламодателей:: mosgorsud-torrent[собачка]yandex.ru