Торрент файл
скачать торрент магнет ссылка Добавлен: 16 апр 2011, 21:24
Размер: 2.19 ГБ
Сидеров: 3
Личеров: 4
Автор

СообщениеДобавлено: 16 апр 2011, 21:24 

Не в сети
Супермодератор
Аватара пользователя
Дата регистрации:
22 май 2010, 11:03
Возраст: 31
Спасибо: 7509 / 13
Сообщения: 49940
Фотографии преступников / Операция "Конец Игры" / Operation Endgame



Перевод: Профессиональный (многоголосый) + Русский авторский перевод (Kerob) + Оригинальная дорожка (Английская)
Субтитры: Английские, Русские
Слоган: «Two rival teams of assassins. One killer day at the office.»
Формат: HDRip, MKV, H.264, AC3

Страна: США

Режиссер: Фоад Микати
Жанр: Боевик, Комедия, Драма
Продолжительность: 01:22:08
Год выпуска: 2009

В ролях: Эмили де Рэйвин, Мэгги Кью, Брэндон Т. Джексон, Джо Андерсон, Зак Галифианакис, Одетт Юстман, Роб Кордри, Адам Скотт, Эллен Баркин, Винг Рэймс

Описание: После того, как супер босс был убит, в сверхсекретной подземной лаборатории начинается бойня между двумя командами правительственных агентов. Новичок среди агентов Фул должен найти убийцу до того, как лабораторию сотрут в порошок.







Видео: 1108*464(2,35:1), MPEG4/ISO/AVC, , х264, 23,976 кадр/сек, 2535 Кбит/сек, 0.206 Bits/(Pixel*Frame)
Аудио: |#1|48,0 КГц, AC3 CBR, 6 канала(ов), Front:(L,C,R,Side: L,R, LFE), 384 Кбит/сек|Профессиональный многоголосый|
Аудио: |#2|48,0 КГц, AC3 CBR, 6 канала(ов), Front:(L,C,R,Side: L,R, LFE), 448 Кбит/сек|Любительский перевод (Kerob)|
Аудио: |#3|48,0 КГц, AC3 CBR, 6 канала(ов), Front:(L,C,R,Side: L,R, LFE), 384 Кбит/сек|Оригинал|

Доп. информация: Рип c Blu-Ray

D:\Films\Operation Endgame.2010.TRIPLE.BDRip-AVC.AC3.-Demon2901.mkv
General
Complete name : D:\Films\Operation Endgame.2010.TRIPLE.BDRip-AVC.AC3.-Demon2901.mkv
Format : Matroska
File size : 2.19 GiB
Duration : 1h 22mn
Overall bit rate : 3 816 Kbps
Encoded date : UTC 2010-08-11 12:14:46
Writing application : mkvmerge v4.0.0 ('The Stars were mine') сборка от Jun6 2010 16:18:42
Writing library : libebml v1.0.0 + libmatroska v1.0.0
Video #1
ID : 1
Format : AVC
Format/Info : Advanced Video Codec
Format profile :
Format settings, CABAC : Yes
Format settings, ReFrames : 10 frames
Muxing mode : Container profile=Unknown@4.1
Codec ID : V_MPEG4/ISO/AVC
Duration : 1h 22mn
Bit rate : 2 460 Kbps
Nominal bit rate : 2 535 Kbps
Width : 1 108 pixels
Height : 464 pixels
Display aspect ratio : 2.35:1
Frame rate : 23.976 fps
Resolution : 24 bits
Colorimetry : 4:2:0
Scan type : Progressive
Bits/(Pixel*Frame) : 0.200
Stream size : 1.41 GiB (64%)
Writing library : x264 core 98 r1649 c54c47d
Encoding settings : cabac=1 / ref=10 / deblock=1:0:0 / analyse=0x3:0x133 / me=umh / subme=10 / psy=1 / psy_rd=1.10:0.20 / mixed_ref=0 / me_range=32 / chroma_me=1 / trellis=2 / 8x8dct=1 / cqm=0 / deadzone=21,11 / fast_pskip=0 / chroma_qp_offset=-3 / threads=3 / sliced_threads=0 / nr=0 / decimate=0 / interlaced=0 / constrained_intra=0 / bframes=10 / b_pyramid=2 / b_adapt=2 / b_bias=0 / direct=3 / weightb=1 / weightp=2 / keyint=250 / keyint_min=25 / scenecut=40 / intra_refresh=0 / rc_lookahead=80 / rc=2pass / mbtree=1 / bitrate=2535 / ratetol=1.0 / qcomp=0.60 / qpmin=10 / qpmax=51 / qpstep=4 / cplxblur=20.0 / qblur=0.5 / ip_ratio=1.40 / aq=1:0.80
Audio #2
ID : 2
Format : AC-3
Format/Info : Audio Coding 3
Codec ID : A_AC3
Duration : 1h 22mn
Bit rate mode : Constant
Bit rate : 384 Kbps
Channel(s) : 6 channels
Channel positions : Front: L C R, Surround: L R, LFE
Sampling rate : 48.0 KHz
Stream size : 226 MiB (10%)
Title : Многоголосый перевод
Language : Russian
Audio #3
ID : 3
Format : AC-3
Format/Info : Audio Coding 3
Codec ID : A_AC3
Duration : 1h 22mn
Bit rate mode : Constant
Bit rate : 448 Kbps
Channel(s) : 6 channels
Channel positions : Front: L C R, Surround: L R, LFE
Sampling rate : 48.0 KHz
Stream size : 263 MiB (12%)
Title : Любительский перевод (Kerob)
Language : Russian
Audio #4
ID : 4
Format : AC-3
Format/Info : Audio Coding 3
Codec ID : A_AC3
Duration : 1h 22mn
Bit rate mode : Constant
Bit rate : 448 Kbps
Channel(s) : 6 channels
Channel positions : Front: L C R, Surround: L R, LFE
Sampling rate : 48.0 KHz
Stream size : 263 MiB (12%)
Title : Оригинал
Language : Russian
Text #5
ID : 5
Format : UTF-8
Codec ID : S_TEXT/UTF8
Codec ID/Info : UTF-8 Plain Text
Title : Субтитры #1
Text #6
ID : 6
Format : UTF-8
Codec ID : S_TEXT/UTF8
Codec ID/Info : UTF-8 Plain Text
Title : Субтитры #2
Language : Russian











реклама партнёра


Вернуться к началу
 Профиль Отправить личное сообщение  
 
   Похожие торренты   Автор   Торрент   Размер 
В этой теме нет новых непрочитанных сообщений. Вернуть отправителю / Return to Sender (Фоад Микати) [Триллер, 2015] HDRip, mvo [чистый звук]

Dracon

58 | 37

1.46 ГБ

В этой теме нет новых непрочитанных сообщений. Адский эндшпиль / Operation: Endgame / Rogues Gallery [Боевик, комедия, 2010] BDRip 1080р, Mvo+Sub

salma3

52 | 9

7.11 ГБ

В этой теме нет новых непрочитанных сообщений. Вернуть отправителю / Return to Sender (Фоад Микати) [Триллер, 2015] BDRip 720p, mvo [чистый звук]

Dracon

9 | 27

3.6 ГБ

В этой теме нет новых непрочитанных сообщений. Вернуть отправителю / Return to Sender (Фоад Микати) [Триллер, 2015] BDRip 1080p, mvo [чистый звук]

Dracon

3 | 1

8.37 ГБ

В этой теме нет новых непрочитанных сообщений. Шпион: Операция под прикрытием / The Spy: Undercover Operation [боевик, комедия, 2013] HDRip, Avo

salma3

23 | 2

1.46 ГБ

В этой теме нет новых непрочитанных сообщений. Восставшие мертвецы: конец игры / Dead Rising: Endgame [Ужасы,боевик, 2016] HDRip, Avo

salma3

256 | 6

1.38 ГБ

В этой теме нет новых непрочитанных сообщений. Восставшие мертвецы: конец игры / Dead Rising: Endgame [ужасы, боевик, 2016] HDRip, Mvo

salma3

538 | 58

1.37 ГБ


Начать новую тему Ответить на тему  [ 1 сообщение ] 




Для Мосгорсуда, Роскомнадзора и рекламодателей:: mosgorsud-torrent[собачка]yandex.ru