Торрент файл
скачать торрент магнет ссылка Добавлен: 16 апр 2011, 21:23
Размер: 2.23 ГБ
Сидеров: 9
Личеров: 3
Автор

СообщениеДобавлено: 16 апр 2011, 21:23 

Не в сети
Супермодератор
Аватара пользователя
Дата регистрации:
22 май 2010, 11:03
Возраст: 31
Спасибо: 7509 / 13
Сообщения: 49940
Быстрее пули / Faster



Перевод: Профессиональный (двухголосый)
Субтитры: Отсутствуют
Слоган: «Правосудие не для всех»
Формат: HDRip (720p), MKV, H.264, AC3

Страна: США

Режиссер: Джордж Тиллман Мл.
Жанр: Боевик, Триллер, Драма, Криминал
Продолжительность: 01:37:57
Год выпуска: 2010

В ролях: Дуэйн "The Rock" Джонсон, Билли Боб Торнтон, Оливер Джексон-Коэн, Карла Гуджино, Мэгги Грэйс, Мун Бладгуд, Адевале Акиннуойе-Агбадже, Том Беренджер, Маурицио Лопез, Джим Гейнс

Описание: Бывший преступник мстит за убийство родного брата во время ограбления десять лет назад, когда кто-то подставил нечистых на руку родственников.







Видео: 1280x536(2,35:1), MPEG4/ISO/AVC, , x264, 23,976 кадр/сек, 2844 Кбит/сек, 0.173 Бит/(Пиксели*Кадры)
Аудио: 48,0 КГц, AC3 CBR, 6 канала(ов), Front:(L,C,R,Side: L,R, LFE), 448 Кбит/сек

Релиз группы:

Доп. информация: Рип c Blu-Ray (720p)

D:\Films\Быстрее пули.[NoLimits-Team].mkv
General
Complete name : D:\Films\Быстрее пули.[NoLimits-Team].mkv
Format : Matroska
File size : 2.23 GiB
Duration : 1h 37mn
Overall bit rate : 3 265 Kbps
Movie name : Rip by Tembr
Encoded date : UTC 2011-02-10 15:58:16
Writing application : mkvmerge v3.2.0 ('Beginnings') built on Feb 12 2010 16:46:17
Writing library : libebml v0.7.9 + libmatroska v0.8.1
Video #1
ID : 1
Format : AVC
Format/Info : Advanced Video Codec
Format profile :
Format settings, CABAC : Yes
Format settings, ReFrames : 3 frames
Muxing mode : Container profile=Unknown@4.1
Codec ID : V_MPEG4/ISO/AVC
Duration : 1h 37mn
Bit rate : 2 752 Kbps
Nominal bit rate : 2 844 Kbps
Width : 1 280 pixels
Height : 536 pixels
Display aspect ratio : 2.35:1
Original display aspect ratio : 2.35:1
Frame rate : 23.976 fps
Resolution : 24 bits
Colorimetry : 4:2:0
Scan type : Progressive
Bits/(Pixel*Frame) : 0.167
Stream size : 1.88 GiB (84%)
Title : Быстрее пули.[NoLimits-Team.ru]
Writing library : x264 core 112 r1867 22bfd31
Encoding settings : cabac=1 / ref=1 / deblock=1:0:0 / analyse=0x3:0x3 / me=dia / subme=1 / psy=1 / psy_rd=0.00:0.00 / mixed_ref=0 / me_range=16 / chroma_me=1 / trellis=0 / 8x8dct=1 / cqm=0 / deadzone=21,11 / fast_pskip=1 / chroma_qp_offset=0 / threads=3 / sliced_threads=0 / slices=4 / nr=0 / decimate=1 / interlaced=0 / constrained_intra=0 / bframes=3 / b_pyramid=1 / b_adapt=1 / b_bias=0 / direct=1 / weightb=1 / open_gop=0 / weightp=1 / keyint=24 / keyint_min=1 / scenecut=40 / intra_refresh=0 / rc_lookahead=0 / rc=abr / mbtree=0 / bitrate=2844 / ratetol=1.0 / qcomp=0.60 / qpmin=0 / qpmax=51 / qpstep=4 / vbv_maxrate=17500 / vbv_bufsize=14500 / nal_hrd=vbr / ip_ratio=1.10 / pb_ratio=1.10 / aq=1:1.00
Language : English
Audio #2
ID : 2
Format : AC-3
Format/Info : Audio Coding 3
Codec ID : A_AC3
Duration : 1h 37mn
Bit rate mode : Constant
Bit rate : 448 Kbps
Channel(s) : 6 channels
Channel positions : Front: L C R, Surround: L R, LFE
Sampling rate : 48.0 KHz
Stream size : 314 MiB (14%)
Title : Профессиональное (многоголосое)
Language : Russian












реклама партнёра


Вернуться к началу
 Профиль Отправить личное сообщение  
 
   Похожие торренты   Автор   Торрент   Размер 
В этой теме нет новых непрочитанных сообщений. Быстрее пули / Faster [боевик, триллер, драма, криминал, 2010 ] HDRip, Avo [Гаврилов]

salma3

2 | 3

1.45 ГБ

В этой теме нет новых непрочитанных сообщений. Дальняя дорога / The Longest Ride (Джордж Тиллман мл.) [Драма, мелодрама, 2015] HDRip, Dub [iTunes]

Dracon

171 | 2

2.18 ГБ

В этой теме нет новых непрочитанных сообщений. Дальняя дорога / The Longest Ride (Джордж Тиллман мл.) [Драма, мелодрама, 2015] HDRip, Dub [iTunes]

Dracon

2133 | 45

1.46 ГБ

В этой теме нет новых непрочитанных сообщений. Дальняя дорога / The Longest Ride (Джордж Тиллман мл.) [Драма, мелодрама, 2015] BDRip 720p, Dub [iTunes]

Dracon

216 | 3

7.13 ГБ

В этой теме нет новых непрочитанных сообщений. Дальняя дорога / The Longest Ride (Джордж Тиллман мл.) [Драма, мелодрама, 2015] BDRip 720p, Dub+Sub [iTunes]

Dracon

4 | 0

4.21 ГБ

В этой теме нет новых непрочитанных сообщений. Дальняя дорога / The Longest Ride (Джордж Тиллман мл.) [Драма, мелодрама, 2015] BDRip 1080p, Dub [iTunes]

Dracon

98 | 8

13.84 ГБ

В этой теме нет новых непрочитанных сообщений. Власть в ночном городе / Power [s02] (Джон Дэвид Коулз, Энтони Хемингуэй, Джордж Тиллман мл.) [Драма, 2015] WEB-DL 1080p [Amedia]

Dracon

42 | 27

23.38 ГБ


Начать новую тему Ответить на тему  [ 1 сообщение ] 




Для Мосгорсуда, Роскомнадзора и рекламодателей:: mosgorsud-torrent[собачка]yandex.ru