Торрент файл
скачать торрент магнет ссылка Добавлен: 27 дек 2017, 12:08
Размер: 745.1 МБ
Сидеров: 44
Личеров: 12
Статус: (salma3)
Автор

СообщениеДобавлено: 27 дек 2017, 12:08 

Не в сети
Супермодератор
Аватара пользователя
Дата регистрации:
15 фев 2012, 16:44
Возраст: 28
Спасибо: 7290 / 2147
Сообщения: 70618
Год выхода: 2010
Жанр: Триллер
Режиссер: Маркос Эфрон

В ролях: Карл Урбан, Эмбер Хёрд, Одетт Юстман, Джина Мантенья, Адриана Барраза, Сесар Вианко, Мишель Нойер, Мария Салом Кери, Хавьер Луна, Андреа Вердён

О фильме :
Действие фильма разворачивается в Аргентине. Две американские девушки путешествуют на велосипедах по отдаленным территориям страны. Когда одна из них исчезает, у второй остается совсем немного времени до наступления темноты, чтобы найти ее. Ночные кошмары не заставят себя ждать.



Страна: США, Аргентина, Франция
Продолжительность: 01:31:16
Перевод: Любительский (одноголосый закадровый) zamez

Файл
Формат: MKV
Качество: HDRip-AVC
Видео: MPEG-4 AVC, 768x320, ~ 1065 Кбит/с
Аудио: AAC-LC, 2 ch, ~ 76 Кбит/с
Субтитры: Русские

Общее
Уникальный идентификатор : 225489514675393789651094489751351868405 (0xA9A3B36AA28528849B22FC81CFAA3BF5)
Полное имя : D:MOVIESI.nastupit.tjma.2010.ExKinoRay.mkv
Формат : Matroska
Версия формата : Version 4 / Version 2
Размер файла : 745 Мбайт
Продолжительность : 1 ч. 31 м.
Общий поток : 1141 Кбит/сек
Дата кодирования : UTC 2017-12-27 06:57:29
Программа кодирования : mkvmerge v15.0.0 ('Duel with the Devil') 64-bit
Библиотека кодирования : libebml v1.3.5 + libmatroska v1.4.5

Видео
Идентификатор : 1
Формат : AVC
Формат/Информация : Advanced Video Codec
Профиль формата : High@L4.1
Параметр CABAC формата : Да
Параметр RefFrames формата : 10 кадров
Идентификатор кодека : V_MPEG4/ISO/AVC
Продолжительность : 1 ч. 31 м.
Битрейт : 1065 Кбит/сек
Ширина : 768 пикселей
Высота : 320 пикселей
Соотношение сторон : 2,40:1
Режим частоты кадров : Постоянный
Частота кадров : 23,976 (24000/1001) кадра/сек
Цветовое пространство : YUV
Субдискретизация насыщенности : 4:2:0
Битовая глубина : 8 бит
Тип развёртки : Прогрессивная
Бит/(Пиксели*Кадры) : 0.181
Размер потока : 694 Мбайт (93%)
Библиотека кодирования : x264 core 152 r2851kMod ba24899
Настройки программы : cabac=1 / ref=10 / deblock=1:-3:-2 / analyse=0x3:0x133 / me=umh / subme=11 / psy=1 / fade_compensate=0.00 / psy_rd=1.00:0.12 / mixed_ref=1 / me_range=32 / chroma_me=1 / trellis=2 / 8x8dct=1 / cqm=0 / deadzone=21,11 / fast_pskip=0 / chroma_qp_offset=-3 / threads=6 / lookahead_threads=1 / sliced_threads=0 / nr=0 / decimate=0 / interlaced=0 / bluray_compat=0 / constrained_intra=0 / bframes=10 / b_pyramid=2 / b_adapt=2 / b_bias=0 / direct=3 / weightb=1 / open_gop=0 / weightp=2 / keyint=240 / keyint_min=23 / scenecut=40 / intra_refresh=0 / rc_lookahead=40 / rc=2pass / mbtree=1 / bitrate=1065 / ratetol=1.0 / qcomp=0.60 / qpmin=0 / qpmax=69 / qpstep=4 / cplxblur=20.0 / qblur=0.5 / vbv_maxrate=50000 / vbv_bufsize=62500 / nal_hrd=none / filler=0 / ip_ratio=1.40 / aq=3:1.00
Default : Да
Forced : Нет

Аудио
Идентификатор : 2
Формат : AAC
Формат/Информация : Advanced Audio Codec
Профиль формата : LC
Идентификатор кодека : A_AAC
Продолжительность : 1 ч. 31 м.
Битрейт : 76,0 Кбит/сек
Каналы : 2 канала
Расположение каналов : Front: L R
Частота : 48,0 КГц
Частота кадров : 46,875 кадров/сек (1024 SPF)
Метод сжатия : С потерями
Задержка видео : 9 мс.
Размер потока : 49,6 Мбайт (7%)
Default : Да
Forced : Нет

Текст
Идентификатор : 3
Формат : UTF-8
Идентификатор кодека : S_TEXT/UTF8
Идентификатор кодека/Информация : UTF-8 Plain Text
Продолжительность : 1 ч. 22 м.
Битрейт : 43 бит/сек
ElementCount : 647
Размер потока : 26,1 Кбайт (0%)
Язык : Russian
Default : Нет
Forced : Нет

Меню
00:00:00.000 : en:00:00:00.000
00:04:08.873 : en:00:04:08.873
00:10:11.819 : en:00:10:11.819
00:21:59.192 : en:00:21:59.192
00:27:46.998 : en:00:27:46.998
00:34:50.171 : en:00:34:50.171
00:47:09.034 : en:00:47:09.034
00:54:35.397 : en:00:54:35.397
01:01:08.665 : en:01:01:08.665
01:08:23.432 : en:01:08:23.432
01:17:54.836 : en:01:17:54.836
01:27:30.119 : en:01:27:30.119
01:31:16.220 : en:01:31:16.220



Релиз от:


_________________
Проголосуй за трекер Открытый торрент трекер - RUS-MEDIA.ORG

Проголосуй Открытый торрент трекер - RUS-MEDIA.ORG


Вернуться к началу
 Профиль Отправить личное сообщение  
 
   Похожие торренты   Автор   Торрент   Размер 
В этой теме нет новых непрочитанных сообщений. И наступит тьма / And Soon the Darkness [триллер, 2010] BDRip 1080p, Avo

salma3

32 | 15

8.89 ГБ

В этой теме нет новых непрочитанных сообщений. Тьма / Darkness [ужасы, триллер, детектив, 2002] BDRip-AVC, Dub

salma3

82 | 7

743.87 МБ

В этой теме нет новых непрочитанных сообщений. Тьма / Darkness [Ужасы, триллер, детектив, 2002] BDRip 720р, Dub

salma3

27 | 3

4.12 ГБ

В этой теме нет новых непрочитанных сообщений. Призрак и Тьма / The Ghost and the Darkness [триллер, драма, приключения, 1996] BDRip, Mvo

salma3

4 | 1

2.18 ГБ

В этой теме нет новых непрочитанных сообщений. Призрак и Тьма / The Ghost and the Darkness [ужасы, триллер, драма, приключения, 1996] BDRip 720p, Mvo

salma3

48 | 16

8.81 ГБ

В этой теме нет новых непрочитанных сообщений. Тьма была ночью / Dark Was the Night (Джек Хеллер) [ужасы, триллер, драма, 2014] HDRip, mvo

Dracon

301 | 40

1.46 ГБ

В этой теме нет новых непрочитанных сообщений. Темнота / The Darkness [ужасы, триллер, 2016] HDRip, Dub [iTunes]

salma3

76 | 24

1.42 ГБ


Начать новую тему Ответить на тему  [ 1 сообщение ] 




Для Мосгорсуда, Роскомнадзора и рекламодателей:: mosgorsud-torrent[собачка]yandex.ru
cron