Торрент файл
скачать торрент магнет ссылка Добавлен: 27 дек 2017, 04:27
Размер: 1.45 ГБ
Сидеров: 28
Личеров: 4
Статус: (salma3)
Автор

СообщениеДобавлено: 27 дек 2017, 04:27 

Не в сети
Супермодератор
Аватара пользователя
Дата регистрации:
15 фев 2012, 16:44
Возраст: 28
Спасибо: 7163 / 2147
Сообщения: 61631
Жанр: Мелодрама, Вестерн
Режиссер: Стюарт Хейслер

Актеры: Гэри Купер, Рут Роман, Стив Кокран, Рэймонд Мэсси, Барбара Пэйтон, Лейф Эриксон, Антонио Морено, Джером Кауэн, Рид Хэдли, Джил Дональдсон

Описание:
Гэри Купер снова в седле и с револьвером в руке. Действие происходит в Далласе, штат Техас, тогда еще маленьком городке, сразу после Гражданской войны. Герой ленты, южанин, разыскивает трех братьев, которые разрушили его дом и уничтожили семью в Джорджии…



Производство: США / Warner Bros. Pictures
Продолжительность: 01:34:12
Перевод: Профессиональный (двуголосый закадровый)

Релиз от: Охрана (NNMCLUB)

Качество видео: DVDRip-AVC
Видео: AVC/H.264, 720x544, ~1825 Kbps
Аудио 1: Русский, AC3, 2 ch, 192 Kbps, 48.0 kHz
Аудио 2: Английский, AC3, 2 ch, 192 Kbps, 48.0 kHz

General
Unique ID : 212888628601758912391356113584717273392 (0xA028DBC45218F1D88C9E45E5467F9930)
Complete name : F:DownloadsДаллас. 1950. NNMCLUB.mkv
Format : Matroska
Format version : Version 4 / Version 2
File size : 1.45 GiB
Duration : 1h 34mn
Overall bit rate : 2 211 Kbps
Encoded date : UTC 2017-12-21 13:31:28
Writing application : mkvmerge v7.0.0 ('Where We Going') 32bit built on Jun 9 2014 15:08:34
Writing library : libebml v1.3.0 + libmatroska v1.4.1
DURATION : 01:34:12.736000000
NUMBER_OF_FRAMES : 176648
NUMBER_OF_BYTES : 135665664
_STATISTICS_WRITING_APP : mkvmerge v7.0.0 ('Where We Going') 32bit built on Jun 9 2014 15:08:34
_STATISTICS_WRITING_DATE_UTC : 2017-12-21 13:31:28
_STATISTICS_TAGS : BPS DURATION NUMBER_OF_FRAMES NUMBER_OF_BYTES

Video
ID : 1
Format : AVC
Format/Info : Advanced Video Codec
Format profile : High@L4.1
Format settings, CABAC : Yes
Format settings, ReFrames : 12 frames
Codec ID : V_MPEG4/ISO/AVC
Duration : 1h 34mn
Bit rate : 1 825 Kbps
Width : 720 pixels
Height : 544 pixels
Display aspect ratio : 4:3
Frame rate mode : Constant
Frame rate : 23.976 fps
Color space : YUV
Chroma subsampling : 4:2:0
Bit depth : 8 bits
Scan type : Progressive
Bits/(Pixel*Frame) : 0.194
Stream size : 1.17 GiB (81%)
Title : Dallas
Writing library : x264 core 125 r2208 d9d2288
Encoding settings : cabac=1 / ref=12 / deblock=1:-1:-1 / analyse=0x3:0x133 / me=umh / subme=10 / psy=1 / psy_rd=1.00:0.10 / mixed_ref=1 / me_range=32 / chroma_me=1 / trellis=2 / 8x8dct=1 / cqm=0 / deadzone=21,11 / fast_pskip=0 / chroma_qp_offset=-3 / threads=6 / lookahead_threads=1 / sliced_threads=0 / nr=0 / decimate=0 / interlaced=0 / bluray_compat=0 / constrained_intra=0 / bframes=7 / b_pyramid=2 / b_adapt=2 / b_bias=0 / direct=3 / weightb=1 / open_gop=0 / weightp=2 / keyint=250 / keyint_min=25 / scenecut=40 / intra_refresh=0 / rc_lookahead=60 / rc=2pass / mbtree=1 / bitrate=1825 / ratetol=1.0 / qcomp=0.60 / qpmin=0 / qpmax=69 / qpstep=4 / cplxblur=20.0 / qblur=0.5 / ip_ratio=1.40 / aq=1:1.00
Language : English
Default : Yes
Forced : No

Audio #1
ID : 2
Format : AC-3
Format/Info : Audio Coding 3
Mode extension : CM (complete main)
Format settings, Endianness : Big
Codec ID : A_AC3
Duration : 1h 34mn
Bit rate mode : Constant
Bit rate : 192 Kbps
Channel(s) : 2 channels
Channel positions : Front: L R
Sampling rate : 48.0 KHz
Bit depth : 16 bits
Compression mode : Lossy
Stream size : 129 MiB (9%)
Title : Двуголосый закадровый
Language : Russian
Default : Yes
Forced : No

Audio #2
ID : 3
Format : AC-3
Format/Info : Audio Coding 3
Mode extension : CM (complete main)
Format settings, Endianness : Big
Codec ID : A_AC3
Duration : 1h 34mn
Bit rate mode : Constant
Bit rate : 192 Kbps
Channel(s) : 2 channels
Channel positions : Front: L R
Sampling rate : 48.0 KHz
Bit depth : 16 bits
Compression mode : Lossy
Stream size : 129 MiB (9%)
Title : Оригинал
Language : English
Default : No
Forced : No


_________________
Проголосуй за трекер Открытый торрент трекер - RUS-MEDIA.ORG

Проголосуй Открытый торрент трекер - RUS-MEDIA.ORG


Вернуться к началу
 Профиль Отправить личное сообщение  
 
   Похожие торренты   Автор   Торрент   Размер 
В этой теме нет новых непрочитанных сообщений. Debbie Does Dallas 2 / Дебби Едет в Даллас 2 (Jim Buckley, Caballero Home Video) [1978 г., Classic, Feature, Big Tits, Lesbian, Masturbation, Blonde, Blowjob, Brunette, Cumshot, DVDRip]

max77777

3 | 2

1.23 ГБ

В этой теме нет новых непрочитанных сообщений. Северный Даллас Сорок / North Dallas Forty [драма, комедия, спорт, 1979] WEBRip, Mvo

salma3

0 | 0

1.45 ГБ

В этой теме нет новых непрочитанных сообщений. Врата дьявола / Devil's Doorway [вестерн, 1950] DVDRip-AVC, Avo

salma3

0 | 0

1.45 ГБ

В этой теме нет новых непрочитанных сообщений. [AussieAss.com] Dallas Rayne (Dallas gets more than a helping hand) [2017 г., MILF, FMM, All Sex, Blowjob, Big Tits, Australlian, 720p]

salma3

13 | 4

2.55 ГБ

В этой теме нет новых непрочитанных сообщений. Винчестер 73 / Winchester '73 [вестерн, боевик, драма, 1950] BDRip 1080p, Mvo

salma3

0 | 0

9.96 ГБ

В этой теме нет новых непрочитанных сообщений. [AussieAss.com] Dallas Rayne (Dallas Rayne in a seven guy gang bang / 11/23/2016 / 314) / Обслужила семерых [2016 г., All Sex, Gangbang, Group, Orgy, Blowjob, Cumshots, 720p]

salma3

4 | 1

1.26 ГБ

В этой теме нет новых непрочитанных сообщений. Монти Уолш / Monte Walsh [мелодрама, вестерн, 2003] DVDRip, Mvo

salma3

0 | 0

1.46 ГБ


Начать новую тему Ответить на тему  [ 1 сообщение ] 




Для Мосгорсуда, Роскомнадзора и рекламодателей:: mosgorsud-torrent[собачка]yandex.ru
cron