Торрент файл
скачать торрент магнет ссылка Добавлен: 16 апр 2011, 21:20
Размер: 2.7 ГБ
Сидеров: 49
Личеров: 7
Автор

СообщениеДобавлено: 16 апр 2011, 21:20 

Не в сети
Супермодератор
Аватара пользователя
Дата регистрации:
22 май 2010, 11:03
Возраст: 31
Спасибо: 7509 / 13
Сообщения: 49940
300 спартанцев / 300


«Обрети славу!»
Перевод: Профессиональный (полное дублирование), cубтитры: русские, английские
Формат: BDRip, MKV, H.264, AC3
Страна: США
Режиссер: Зак Снайдер
Жанр: фэнтези, боевик, военный
Продолжительность: 01:56:32
Год выпуска: 2006
В ролях: Джерард Батлер, Лена Хиди, Доминик Вэст, Дэвид Вэнхем, Винсент Реган, Майкл Фассбендер
Описание: События картины повествуют о кровопролитной битве при Фермопилах в 480 году до н. э., в которой триста отважных спартанцев во главе со своим царем Леонидом преградили путь многотысячной армии персидского царя Ксеркса.
Несмотря на численный перевес персов, спартанцы продолжали упорную оборону, проявив мужество и отвагу. Их бесстрашие и героизм вдохновили всю Грецию на объединение против непобедимого врага, переломив тем самым ход Греко-персидских войн…




Видео: 1280x534 (2,35:1), 23,976 fps, AVC MPEG4 (x264) , ~2866, 0.175 bit/pixel
Аудио: 48 kHz, AC-3,3/2 (L,C,R,l,r) + LFE ch, ~ 384 kbps avg

Рип создан группой

Общее
Уникальный идентификатор: 238940370160578967696445857300388114196 (0xB3C23DCB2DF2E2D88472FC744265EF14)
Полное имя: D:\MY RELIZE\300.mkv
Формат: Matroska
Размер файла: 2,70 Гбайт
Продолжительность: 1 ч. 56 м.
Общий поток: 3316 Кбит/сек
Название фильма: Релиз от MaxVeLL [DHT-Movies]
Дата кодирования: UTC 2011-01-18 06:02:52
Программа кодирования: mkvmerge v4.0.0 ('The Stars were mine') збірка від Jun6 2010 16:18:42
Библиотека кодирования: libebml v1.0.0 + libmatroska v1.0.0

Видео
Идентификатор: 1
Формат: AVC
Формат/Информация: Advanced Video Codec
Профиль формата:
Параметр CABAC формата: Да
Параметр ReFrames формата: 10 кадры
Идентификатор кодека: V_MPEG4/ISO/AVC
Продолжительность: 1 ч. 56 м.
Битрейт: 2866 Кбит/сек
Ширина: 1280 пикс.
Высота: 534 пикс.
Соотношение сторон: 2,35:1
Частота кадров: 23,976 кадр/сек
Стандарт вещания: NTSC
Цветовое пространство: YUV
Подвыборка цветности: 4:2:0
Битовая глубина: 8 бит
Тип развёртки: Прогрессивная
Бит/(Пиксели*Кадры): 0.175
Размер потока: 2,33 Гбайт (86%)
Язык: English
Основные цвета: BT.709-5, BT.1361, IEC 61966-2-4, SMPTE RP177
Характеристики трансфера: BT.709-5, BT.1361
Коэффициенты матрицы: BT.709-5, BT.1361, IEC 61966-2-4 709, SMPTE RP177

Аудио
Идентификатор: 2
Формат: AC-3
Формат/Информация: Audio Coding 3
Расширение режима: CM (complete main)
Идентификатор кодека: A_AC3
Продолжительность: 1 ч. 56 м.
Вид битрейта: Постоянный
Битрейт: 384 Кбит/сек
Канал(ы): 6 канала(ов)
Расположение каналов: Front: L C R, Side: L R, LFE
Частота: 48,0 КГц
Битовая глубина: 16 бит
Метод сжатия: С потерями
Размер потока: 320 Мбайт (12%)
Заголовок: DUB
Язык: Russian

Текст #1
Идентификатор: 3
Формат: UTF-8
Идентификатор кодека: S_TEXT/UTF8
Идентификатор кодека/Информация: UTF-8 Plain Text
Язык: Russian

Текст #2
Идентификатор: 4
Формат: UTF-8
Идентификатор кодека: S_TEXT/UTF8
Идентификатор кодека/Информация: UTF-8 Plain Text
Язык: English















реклама партнёра


Вернуться к началу
 Профиль Отправить личное сообщение  
 
   Похожие торренты   Автор   Торрент   Размер 
В этой теме нет новых непрочитанных сообщений. 300 спартанцев: Расцвет империи / 300: Rise of an Empire [Фэнтези, боевик, драма, военный, 2014] BDRip-AVC, Dub+Sub [Лицензия]

salma3

438 | 26

1.46 ГБ

В этой теме нет новых непрочитанных сообщений. 300 спартанцев: Расцвет империи / 300: Rise of an Empire [Фэнтези, боевик, драма, военный, 2014] BDRip-AVC, Dub+Sub [Лицензия]

salma3

830 | 30

2.23 ГБ

В этой теме нет новых непрочитанных сообщений. 300 спартанцев: Расцвет империи / 300: Rise of an Empire [боевик, драма, военный, 2014] HDRip, Dub [iTunes]

Dracon

907 | 15

1.46 ГБ

В этой теме нет новых непрочитанных сообщений. 300 спартанцев: Расцвет империи / 300: Rise of an Empire [боевик, драма, военный, 2014] Blu-ray, Dub+Sub [Лицензия]

Dracon

93 | 30

38.26 ГБ

В этой теме нет новых непрочитанных сообщений. 300 спартанцев: Расцвет империи / 300: Rise of an Empire [боевик, драма, военный, 2014] BDRip, Dub [Лицензия]

Dracon

8 | 2

2.19 ГБ

В этой теме нет новых непрочитанных сообщений. 300 спартанцев: Расцвет империи / 300: Rise of an Empire [боевик, драма, военный, 2014] CAMRip*PROPER*, dub

Dracon

57 | 3

1.37 ГБ

В этой теме нет новых непрочитанных сообщений. 300 спартанцев: Расцвет империи / 300: Rise of an Empire [боевик, драма, военный, 2014] DVD5, Dub+Sub [Лицензия]

Dracon

179 | 10

4.37 ГБ


Начать новую тему Ответить на тему  [ 1 сообщение ] 




Для Мосгорсуда, Роскомнадзора и рекламодателей:: mosgorsud-torrent[собачка]yandex.ru