Торрент файл
скачать торрент магнет ссылка Добавлен: 16 апр 2011, 21:20
Размер: 2.2 ГБ
Сидеров: 8
Личеров: 7
Автор

СообщениеДобавлено: 16 апр 2011, 21:20 

Не в сети
Супермодератор
Аватара пользователя
Дата регистрации:
22 май 2010, 11:03
Возраст: 31
Спасибо: 7509 / 13
Сообщения: 49940
Крепкий орешек / Die Hard



Перевод: Профессиональный (полное дублирование), cубтитры: отсутствуют
Формат: HDRip, MKV, H.264, AC3
Страна: США
Режиссер: Джон МакТирнан
Жанр: Боевик
Продолжительность: 02:12:07
Год выпуска: 1988
В ролях: Брюс Уиллис, Бонни Беделиа, Элан Рикман, Александр Годунов, Уильям Этертон, Пол Глисон, Дэннис Хейден, Реджинальд ВелДжонсон, Деворо Уайт, Харт Бокнер
Описание: В суперсовременном небоскребе Лос-Анджелеса полицейский Джон Макклейн ведет смертельную схватку с бандой политических террористов, взявших в заложники два десятка человек, в число которых попадает и его жена. Началось все с того, что парень приехал в город к жене, оказался на рождественском приеме, а кончилось настоящей войной…



Видео: 1280x544p (2.35:1), 23.976 fps, AVC MPEG4 (x264) , ~1 939 Kbps avg, 0.116 bit/pixel
Аудио:48.0 KHz, AC-3 , 6 (Front: L C R, Side: L R, LFE) ch, ~448 kbps avg
Доп. информация: Релиз Группа | Автор Рипа::

Бюджет Фильма: $28 000 000

General
Unique ID: 175063931357116327714038362385223243287 (0x83B41635CA70AC65A4DEE21C4F3FD617)
Complete name: D:\Фильмы\die_hard_[tfile.ru].mkv
Format: Matroska
File size: 2.20 GiB
Duration: 2h 12mn
Overall bit rate: 2 378 Kbps
Movie name: Rip by Romeo [NOLIMITS-TEAM.RU]
Encoded date: UTC 2010-10-06 18:52:52
Writing application: mkvmerge v3.0.0 ('Hang up your Hang-Ups') built on Dec 12 2009 15:20:35
Writing library: libebml v0.7.9 + libmatroska v0.8.1

Video
ID: 1
Format: AVC
Format/Info: Advanced Video Codec
Format profile:
Format settings, CABAC: Yes
Format settings, ReFrames: 3 frames
Codec ID: V_MPEG4/ISO/AVC
Duration: 2h 12mn
Bit rate mode: Variable
Bit rate: 1 939 Kbps
Maximum bit rate: 17.5 Mbps
Width: 1 280 pixels
Height: 544 pixels
Display aspect ratio: 2.35:1
Original display aspect ratio: 2.35:1
Frame rate: 23.976 fps
Color space: YUV
Chroma subsampling: 4:2:0
Bit depth: 8 bits
Scan type: Progressive
Bits/(Pixel*Frame): 0.116
Stream size: 1.74 GiB (79%)
Title: Крепкий орешек.[nolimits-team.ru]
Writing library: x264 core 104 r1713 c276662
Encoding settings: cabac=1 / ref=1 / deblock=1:0:0 / analyse=0x3:0x3 / me=dia / subme=1 / psy=1 / psy_rd=0.00:0.00 / mixed_ref=0 / me_range=16 / chroma_me=1 / trellis=0 / 8x8dct=1 / cqm=0 / deadzone=21,11 / fast_pskip=1 / chroma_qp_offset=0 / threads=6 / sliced_threads=0 / slices=4 / nr=0 / decimate=1 / interlaced=0 / constrained_intra=0 / bframes=3 / b_pyramid=1 / b_adapt=1 / b_bias=0 / direct=1 / weightb=1 / open_gop=0 / weightp=0 / keyint=24 / keyint_min=1 / scenecut=40 / intra_refresh=0 / rc_lookahead=0 / rc=abr / mbtree=0 / bitrate=1939 / ratetol=1.0 / qcomp=0.60 / qpmin=0 / qpmax=51 / qpstep=4 / vbv_maxrate=17500 / vbv_bufsize=14500 / ip_ratio=1.10 / pb_ratio=1.10 / aq=1:1.00 / nal_hrd=vbr
Language: English

Audio
ID: 2
Format: AC-3
Format/Info: Audio Coding 3
Mode extension: CM (complete main)
Codec ID: A_AC3
Duration: 2h 12mn
Bit rate mode: Constant
Bit rate: 448 Kbps
Channel(s): 6 channels
Channel positions: Front: L C R, Side: L R, LFE
Sampling rate: 48.0 KHz
Bit depth: 16 bits
Compression mode: Lossy
Stream size: 424 MiB (19%)
Title: Профессиональный (дублированный)
Language: Russian









реклама партнёра


Вернуться к началу
 Профиль Отправить личное сообщение  
 
   Похожие торренты   Автор   Торрент   Размер 
В этой теме нет новых непрочитанных сообщений. Крепкий орешек: Хороший день, чтобы умереть / A Good Day to Die Hard (Джон Мур / John Moore) [2013, США, боевик, триллер, криминал, HQRip-AVC] [Расширенная версия / Extended Сut] Dub

PriZraK

53 | 1

1.43 ГБ

В этой теме нет новых непрочитанных сообщений. Крепкий орешек 3: Возмездие / Die Hard: With a Vengeance [Боевик, триллер, драма, криминал, 1995] BDRip 1080p, Mvo+Sub

salma3

67 | 4

7.75 ГБ

В этой теме нет новых непрочитанных сообщений. Боевик Джексон / Action Jackson [боевик, триллер, комедия, криминал, 1988] BDRip 1080p, Dub+Mvo+Avo

salma3

31 | 34

10.82 ГБ

В этой теме нет новых непрочитанных сообщений. Боевик Джексон / Action Jackson [боевик, триллер, комедия, криминал, 1988] BDRip 720p, Dub+Mvo+Avo

salma3

44 | 7

9.35 ГБ

В этой теме нет новых непрочитанных сообщений. Брэддок: Без вести пропавшие 3 / Braddock: Missing in Action III [Боевик, Триллер, Драма, 1988] BDRip, Mvo

salma3

0 | 2

1.46 ГБ

В этой теме нет новых непрочитанных сообщений. Красный скорпион / Red Scorpion [Боевик, приключения, 1988] HDRip, Dvo

salma3

0 | 2

1.46 ГБ

В этой теме нет новых непрочитанных сообщений. Клетка тигра / Dak ging to lung [Боевик, 1988] HDRip 720p, Avo

salma3

23 | 11

2.19 ГБ


Начать новую тему Ответить на тему  [ 1 сообщение ] 




Для Мосгорсуда, Роскомнадзора и рекламодателей:: mosgorsud-torrent[собачка]yandex.ru