Торрент файл
скачать торрент магнет ссылка Добавлен: 16 апр 2011, 21:19
Размер: 6.53 ГБ
Сидеров: 10
Личеров: 6
Автор

СообщениеДобавлено: 16 апр 2011, 21:19 

Не в сети
Супермодератор
Аватара пользователя
Дата регистрации:
22 май 2010, 11:03
Возраст: 31
Спасибо: 7509 / 13
Сообщения: 49940
Крепкий орешек 2 / Die Hard 2



Перевод: Профессиональный (полное дублирование), cубтитры: отсутствуют
Формат: HDRip, MKV, H.264, AC3
Страна: США
Режиссер: Ренни Харлин
Жанр: Боевик
Продолжительность: 02:03:21
Год выпуска: 1990
В ролях: Брюс Уиллис, Бонни Беделиа, Уильям Этертон, Уильям Сэдлер, Реджинальд ВелДжонсон, Франко Неро, Джон Эймос, Деннис Франц, Арт Эванс, Фред Долтон Томпсон
Описание: В канун Рождества группа террористов захватила международный аэропорт и теперь удерживает тысячи путешествующих в качестве заложников. Террористы — банда отступников из первоклассно вооруженных коммандос, возглавляемых одержимым жестокостью офицером. Их цель — спасти наркобарона.Банда подготовлена ко всевозможным случайностям, за исключением одной — встречи с Джоном Макклейном. Брюс Уиллис возвращается в роли супергероя-полицейского, который сражается не только с террористами, но и с некомпетентным шефом полиции аэропорта, тупоголовым начальником антитеррористического подразделения и страшным снежным бураном.Заложники мечутся, смертельно испуганные и растерянные. А Джон Макклейн ведет схватку и со временем. Его жена находится в одном из самолетов, кружащих над аэропортом. А топливо — на пределе…



Видео: 1280x544p (2.35:1), 23.976 fps, AVC MPEG4 (x264) , ~2 112 Kbps avg, 0.127 bit/pixel
Аудио: 48.0 KHz, AC-3 , 6 (Front: L C R, Side: L R, LFE) ch, ~448 kbps avg [Профессиональный (полное дублирование)]
Доп. информация:Релиз Группа | Автор Рипа:
Бюджет Фильма::$70 000 000

General
Unique ID: 186238238516096120189737301901018728972 (0x8C1C2E16C2DD42B496E47C229E450A0C)
Complete name: D:\Фильмы\die_hard_[tfile.ru]\die_hard_2_[tfile.ru].mkv
Format: Matroska
File size: 2.17 GiB
Duration: 2h 3mn
Overall bit rate: 2 522 Kbps
Movie name: Rip by Romeo [NOLIMITS-TEAM.RU]
Encoded date: UTC 2010-10-06 19:29:49
Writing application: mkvmerge v3.0.0 ('Hang up your Hang-Ups') built on Dec 12 2009 15:20:35
Writing library: libebml v0.7.9 + libmatroska v0.8.1

Video
ID: 1
Format: AVC
Format/Info: Advanced Video Codec
Format profile:
Format settings, CABAC: Yes
Format settings, ReFrames: 3 frames
Codec ID: V_MPEG4/ISO/AVC
Duration: 2h 3mn
Bit rate mode: Variable
Bit rate: 2 112 Kbps
Maximum bit rate: 17.5 Mbps
Width: 1 280 pixels
Height: 544 pixels
Display aspect ratio: 2.35:1
Original display aspect ratio: 2.35:1
Frame rate: 23.976 fps
Color space: YUV
Chroma subsampling: 4:2:0
Bit depth: 8 bits
Scan type: Progressive
Bits/(Pixel*Frame): 0.127
Stream size: 1.74 GiB (80%)
Title: Крепкий орешек 2.[nolimits-team.ru]
Writing library: x264 core 104 r1713 c276662
Encoding settings: cabac=1 / ref=1 / deblock=1:0:0 / analyse=0x3:0x3 / me=dia / subme=1 / psy=1 / psy_rd=0.00:0.00 / mixed_ref=0 / me_range=16 / chroma_me=1 / trellis=0 / 8x8dct=1 / cqm=0 / deadzone=21,11 / fast_pskip=1 / chroma_qp_offset=0 / threads=6 / sliced_threads=0 / slices=4 / nr=0 / decimate=1 / interlaced=0 / constrained_intra=0 / bframes=3 / b_pyramid=1 / b_adapt=1 / b_bias=0 / direct=1 / weightb=1 / open_gop=0 / weightp=0 / keyint=24 / keyint_min=1 / scenecut=40 / intra_refresh=0 / rc_lookahead=0 / rc=abr / mbtree=0 / bitrate=2112 / ratetol=1.0 / qcomp=0.60 / qpmin=0 / qpmax=51 / qpstep=4 / vbv_maxrate=17500 / vbv_bufsize=14500 / ip_ratio=1.10 / pb_ratio=1.10 / aq=1:1.00 / nal_hrd=vbr
Language: English

Audio
ID: 2
Format: AC-3
Format/Info: Audio Coding 3
Mode extension: CM (complete main)
Codec ID: A_AC3
Duration: 2h 3mn
Bit rate mode: Constant
Bit rate: 448 Kbps
Channel(s): 6 channels
Channel positions: Front: L C R, Side: L R, LFE
Sampling rate: 48.0 KHz
Bit depth: 16 bits
Compression mode: Lossy
Stream size: 395 MiB (18%)
Title: Профессиональный (дублированный)
Language: Russian







Крепкий орешек 3: Возмездие / Die Hard 3: With a Vengeance



Перевод: Профессиональный (многоголосный), cубтитры: отсутствуют
Формат: HDRip, MKV, H.264, AC3
Страна: США
Режиссер: Джон МакТирнан
Жанр: Боевик
Продолжительность: 02:08:31
Год выпуска: 1995
В ролях: Брюс Уиллис, Джереми Айронс, Сэмюэл Л. Джексон, Грэм Грин, Коллин Кэмп, Ларри Бриггман, Энтони Пек, Николас Уаймэн, Сэм Филлипс
Описание: На улицах Нью-Йорка офицер полиции Джон Макклейн видел все, что только возможно. На этот раз для того, чтобы отомстить Макклейну, террорист Саймон, виртуозно устраивающий взрывы, заставляет героя — полицейского играть в смертельную игру. Ставка — город Нью-Йорк.Макклейн вынужден метаться по городу, следуя телефонным указаниям Саймона, готового разнести пол — Нью-Йорка за малейшее отклонение от его требований. И в то время, как вся полиция города занята поисками террористов, преступники похищают золотой запас Национального банка США.У Макклейна бывали неудачные деньки за годы службы в полиции, но сегодня у него, похоже, будет исключительно скверный день…



Видео: 1280x544p (2.35:1), 23.976 fps, AVC MPEG4 (x264) , ~2 005Kbps avg, 0.120 bit/pixel
Аудио: 48.0 KHz, AC-3 , 6 (Front: L C R, Side: L R, LFE) ch, ~448 kbps avg [Профессиональный (многоголосный)]
Доп. информация:Релиз Группа | Автор Рипа:
Бюджет Фильма::$90 000 000

General
Unique ID: 189544489356557178219460747304241323929 (0x8E98F0D74167CD1699D294BE9351DF99)
Complete name: D:\Фильмы\die_hard_[tfile.ru]\die_hard_3_[tfile.ru].mkv
Format: Matroska
File size: 2.19 GiB
Duration: 2h 8mn
Overall bit rate: 2 438 Kbps
Movie name: Rip by Romeo [NOLIMITS-TEAM.RU]
Encoded date: UTC 2010-10-06 20:13:21
Writing application: mkvmerge v3.0.0 ('Hang up your Hang-Ups') built on Dec 12 2009 15:20:35
Writing library: libebml v0.7.9 + libmatroska v0.8.1

Video
ID: 1
Format: AVC
Format/Info: Advanced Video Codec
Format profile:
Format settings, CABAC: Yes
Format settings, ReFrames: 3 frames
Codec ID: V_MPEG4/ISO/AVC
Duration: 2h 8mn
Bit rate mode: Variable
Bit rate: 2 005 Kbps
Maximum bit rate: 17.5 Mbps
Width: 1 280 pixels
Height: 544 pixels
Display aspect ratio: 2.35:1
Original display aspect ratio: 2.35:1
Frame rate: 23.976 fps
Color space: YUV
Chroma subsampling: 4:2:0
Bit depth: 8 bits
Scan type: Progressive
Bits/(Pixel*Frame): 0.120
Stream size: 1.74 GiB (80%)
Title: Крепкий орешек 3 Возмездие.[nolimits-team.ru]
Writing library: x264 core 104 r1713 c276662
Encoding settings: cabac=1 / ref=1 / deblock=1:0:0 / analyse=0x3:0x3 / me=dia / subme=1 / psy=1 / psy_rd=0.00:0.00 / mixed_ref=0 / me_range=16 / chroma_me=1 / trellis=0 / 8x8dct=1 / cqm=0 / deadzone=21,11 / fast_pskip=1 / chroma_qp_offset=0 / threads=6 / sliced_threads=0 / slices=4 / nr=0 / decimate=1 / interlaced=0 / constrained_intra=0 / bframes=3 / b_pyramid=1 / b_adapt=1 / b_bias=0 / direct=1 / weightb=1 / open_gop=0 / weightp=0 / keyint=24 / keyint_min=1 / scenecut=40 / intra_refresh=0 / rc_lookahead=0 / rc=abr / mbtree=0 / bitrate=2005 / ratetol=1.0 / qcomp=0.60 / qpmin=0 / qpmax=51 / qpstep=4 / vbv_maxrate=17500 / vbv_bufsize=14500 / ip_ratio=1.10 / pb_ratio=1.10 / aq=1:1.00 / nal_hrd=vbr
Language: English

Audio
ID: 2
Format: AC-3
Format/Info: Audio Coding 3
Mode extension: CM (complete main)
Codec ID: A_AC3
Duration: 2h 8mn
Bit rate mode: Constant
Bit rate: 448 Kbps
Channel(s): 6 channels
Channel positions: Front: L C R, Side: L R, LFE
Sampling rate: 48.0 KHz
Bit depth: 16 bits
Compression mode: Lossy
Stream size: 412 MiB (18%)
Title: Профессиональный (многоголосый)
Language: Russian







Крепкий орешек 4.0 / Die Hard 4.0



Перевод: Профессиональный (дублированный), cубтитры: отсутствуют
Формат: HDRip, MKV, H.264, AC3
Страна: США
Режиссер: Лен Уайзман
Жанр: Боевик
Продолжительность: 02:08:43
Год выпуска: 2007
В ролях: Брюс Уиллис, Тимоти Олифант, Мэгги Кью, Джастин Лонг, Джеффри Райт, Мэри Элизабет Уинстэд, Кевин Смит, Янси Эриас, Йорго Константин, Клифф Кертис, Джонатан Садовский, Эндрю Фридман, Cирил Раффаэлли
Описание: Мир опять на краю гибели из-за новой террористической угрозы. В этот раз в «заложниках» оказывается всемирная компьютерная сеть. Правительство и спецслужбы бессильны, все готово погрузиться в хаос. Но на борьбу с нависшей над миром опасностью выходит наш старый герой Джон МакКлейн со своей неразлучной подругой «Береттой». Он давно в отставке, но когда на карту поставлена жизнь членов его семьи, он не будет стоять в стороне и бросит вызов террористам. Однако в этот раз ему уже не справиться без молодого, но очень талантливого помощника.



Видео: 1280x534p (2.35:1), 23.976 fps, AVC MPEG4 (x264) , ~1 975Kbps avg, 0.121 bit/pixel
Аудио: 48.0 KHz, AC-3 , 6 (Front: L C R, Side: L R, LFE) ch, ~448 kbps avg[Профессиональный (полное дублирование)]
Доп. информация:Релиз Группа | Автор Рипа:
Бюджет Фильма::$110 000 000

General
Unique ID: 199613813629006828612647920636234513645 (0x962C38DB6C87C5CD88C3CA620BF73CED)
Complete name: D:\Фильмы\die_hard_[tfile.ru]\die_hard_4.0_[tfile.ru].mkv
Format: Matroska
File size: 2.17 GiB
Duration: 2h 8mn
Overall bit rate: 2 415 Kbps
Movie name: Rip by Romeo [NOLIMITS-TEAM.RU]
Encoded date: UTC 2010-10-06 20:35:40
Writing application: mkvmerge v3.0.0 ('Hang up your Hang-Ups') built on Dec 12 2009 15:20:35
Writing library: libebml v0.7.9 + libmatroska v0.8.1

Video
ID: 1
Format: AVC
Format/Info: Advanced Video Codec
Format profile:
Format settings, CABAC: Yes
Format settings, ReFrames: 3 frames
Format settings, GOP: M=4, N=16
Codec ID: V_MPEG4/ISO/AVC
Duration: 2h 8mn
Bit rate mode: Variable
Bit rate: 1 975 Kbps
Maximum bit rate: 17.5 Mbps
Width: 1 280 pixels
Height: 534 pixels
Display aspect ratio: 2.35:1
Original display aspect ratio: 2.35:1
Frame rate: 23.976 fps
Color space: YUV
Chroma subsampling: 4:2:0
Bit depth: 8 bits
Scan type: Progressive
Bits/(Pixel*Frame): 0.121
Stream size: 1.73 GiB (79%)
Title: Крепкий орешек 4.0.[nolimits-team.ru]
Writing library: x264 core 104 r1713 c276662
Encoding settings: cabac=1 / ref=1 / deblock=1:0:0 / analyse=0x3:0x3 / me=dia / subme=1 / psy=1 / psy_rd=0.00:0.00 / mixed_ref=0 / me_range=16 / chroma_me=1 / trellis=0 / 8x8dct=1 / cqm=0 / deadzone=21,11 / fast_pskip=1 / chroma_qp_offset=0 / threads=6 / sliced_threads=0 / slices=4 / nr=0 / decimate=1 / interlaced=0 / constrained_intra=0 / bframes=3 / b_pyramid=1 / b_adapt=1 / b_bias=0 / direct=1 / weightb=1 / open_gop=0 / weightp=0 / keyint=24 / keyint_min=1 / scenecut=40 / intra_refresh=0 / rc_lookahead=0 / rc=abr / mbtree=0 / bitrate=1975 / ratetol=1.0 / qcomp=0.60 / qpmin=0 / qpmax=51 / qpstep=4 / vbv_maxrate=17500 / vbv_bufsize=14500 / ip_ratio=1.10 / pb_ratio=1.10 / aq=1:1.00 / nal_hrd=vbr
Language: English

Audio
ID: 2
Format: AC-3
Format/Info: Audio Coding 3
Mode extension: CM (complete main)
Codec ID: A_AC3
Duration: 2h 8mn
Bit rate mode: Constant
Bit rate: 448 Kbps
Channel(s): 6 channels
Channel positions: Front: L C R, Side: L R, LFE
Sampling rate: 48.0 KHz
Bit depth: 16 bits
Compression mode: Lossy
Stream size: 412 MiB (19%)
Title: Профессиональный (дублированный)
Language: Russian








реклама партнёра


Вернуться к началу
 Профиль Отправить личное сообщение  
 
   Похожие торренты   Автор   Торрент   Размер 
В этой теме нет новых непрочитанных сообщений. Крепкий орешек: Хороший день, чтобы умереть / A Good Day to Die Hard (Джон Мур / John Moore) [2013, США, боевик, триллер, криминал, HQRip-AVC] [Расширенная версия / Extended Сut] Dub

PriZraK

53 | 1

1.43 ГБ

В этой теме нет новых непрочитанных сообщений. Крепкий орешек 3: Возмездие / Die Hard: With a Vengeance [Боевик, триллер, драма, криминал, 1995] BDRip 1080p, Mvo+Sub

salma3

67 | 4

7.75 ГБ

В этой теме нет новых непрочитанных сообщений. Геракл: Начало легенды / The Legend of Hercules (Ренни Харлин) [2014, боевик, фэнтези, HDRip | Чистый звук] Dub

PriZraK

2952 | 125

1.45 ГБ

В этой теме нет новых непрочитанных сообщений. Назад в будущее: Трилогия / Back to the Future Trilogy [фантастика, комедия, приключения, 1985-1990] BDRip, Dub

salma3

433 | 39

4.37 ГБ

В этой теме нет новых непрочитанных сообщений. Кунг-фу Панда:Трилогия / Kung Fu Panda:Trilogy (Марк Осборн, Джон Стивенсон,Алессандро Карлони, Дженнифер Ю) [2008-2016, Мультфильм, боевик, комедия, приключения, семейный , BDRip 1080p] [DD5.1] [Dub Rus , Ukr , Eng]+[Sub Rus , Ukr , Eng][

Враг Нароода

3 | 7

27.41 ГБ

В этой теме нет новых непрочитанных сообщений. Трудный Ребенок: Трилогия / Problem Child: Trilogy (Дэннис Дуган,Брайан Левант,Грег Биман) [1990-1995, Комедия, Семейный, DVDRip]

marya111

0 | 0

4.27 ГБ

В этой теме нет новых непрочитанных сообщений. Грейсленд / Graceland [S03] (Ренни Харлин) [2015, Драма, WEB-DLRip | NewStudio]

Nickolas3435

332 | 255

6.98 ГБ


Начать новую тему Ответить на тему  [ 1 сообщение ] 




Для Мосгорсуда, Роскомнадзора и рекламодателей:: mosgorsud-torrent[собачка]yandex.ru