Торрент файл
скачать торрент магнет ссылка Добавлен: 16 апр 2011, 21:14
Размер: 2.19 ГБ
Сидеров: 25
Личеров: 4
Автор

СообщениеДобавлено: 16 апр 2011, 21:14 

Не в сети
Супермодератор
Аватара пользователя
Дата регистрации:
22 май 2010, 11:03
Возраст: 31
Спасибо: 7509 / 13
Сообщения: 49940
Королевство / The Kingdom


Перевод: Профессиональный (полное дублирование)
Субтитры : Русские, английские
Формат: HDRip, MKV, H.264, AC3
Страна: США, Германия / Universal Pictures
Режиссер: Питер Берг
Жанр: Боевик, драма, триллер
Продолжительность: 01:49:45
Год выпуска: 2007

В ролях: Джейми Фокс, Дженнифер Гарнер, Джейсон Бэйтман, Крис Купер, Эндрю Астор, Джереми Пивен, Брук Лэнгтон, Минка Келли, Фрэнсис Фишер, Кайл Чандлер

Описание: Драматический боевик на острую нынче тему конфликта на Ближнем Востоке. В этот трудный во всех отношениях регион отправляется команда из четверых профессиональных агентов ФБР, чтобы расследовать теракт, произошедший на американском объекте в этой стране, и найти некого Абу Хамза, предположительно главу террористов.

Сразу становится ясно, что миссия будет не из легких. Однако американцы находят общий язык с представителем местной полиции, который будет по возможности оказывать команде помощь в установлении справедливости в этой чужой им стране.






Видео: 1024x432(2.35:1), 23,976 кадр/сек, MPEG-4 AVC, 2401 Кбит/с, 0.226 бит/пиксель
Аудио: 48 kHz, AC3 Dolby Digital, 3/2 (L,C,R,l,r) + LFE ch, 448.00 Кбит/с



Релиз от:

Общее
UniqueID/String: 195227507252374285431375383604203840836 (0x92DF734185BB9D41A50E603E2E8F6544)
Полное имя: C:\Korolevstvo.2007.х264.BDRip(AVC)-ed_rez.mkv
Формат: Matroska
Размер файла: 2,19 Гбайт
Продолжительность: 1 ч. 49 м.
Общий поток: 2850 Кбит/сек
Дата кодирования: UTC 2011-02-07 08:11:21
Программа кодирования: mkvmerge v4.4.0 ('Die Wiederkehr') built on Oct 31 2010 21:52:48
Библиотека кодирования: libebml v1.0.0 + libmatroska v1.0.0

Видео
Идентификатор: 1
Формат: AVC
Формат/Информация: Advanced Video Codec
Профиль формата:
Параметр CABAC формата: Да
Параметр ReFrames формата: 8 кадры
Режим смешивания: Header stripping
Идентификатор кодека: V_MPEG4/ISO/AVC
Продолжительность: 1 ч. 49 м.
Битрейт: 2401 Кбит/сек
Ширина: 1024 пикс.
Высота: 432 пикс.
Соотношение сторон: 2,35:1
Частота кадров: 23,976 кадр/сек
Цветовое пространство: YUV
Подвыборка цветности: 4:2:0
Битовая глубина: 8 бит
Тип развёртки: Прогрессивная
Бит/(Пиксели*Кадры): 0.226
Размер потока: 1,80 Гбайт (82%)
Библиотека кодирования: x264 core 112 r1867 22bfd31
Язык: English

Аудио
Идентификатор: 2
Формат: AC-3
Формат/Информация: Audio Coding 3
Расширение режима: CM (complete main)
Режим смешивания: Header stripping
Идентификатор кодека: A_AC3
Продолжительность: 1 ч. 49 м.
Вид битрейта: Постоянный
Битрейт: 448 Кбит/сек
Канал(ы): 6 канала(ов)
Расположение каналов: Front: L C R, Side: L R, LFE
Частота: 48,0 КГц
Битовая глубина: 16 бит
Метод сжатия: С потерями
Размер потока: 352 Мбайт (16%)
Заголовок: DUB
Язык: Russian

Текст #1
Идентификатор: 3
Формат: UTF-8
Идентификатор кодека: S_TEXT/UTF8
Идентификатор кодека/Информация: UTF-8 Plain Text
Язык: Russian

Текст #2
Идентификатор: 4
Формат: UTF-8
Идентификатор кодека: S_TEXT/UTF8
Идентификатор кодека/Информация: UTF-8 Plain Text
Язык: English







реклама партнёра


Вернуться к началу
 Профиль Отправить личное сообщение  
 
   Похожие торренты   Автор   Торрент   Размер 
В этой теме нет новых непрочитанных сообщений. Королевство / The Kingdom [Боевик, триллер, 2007] HDRip, Dub

salma3

40 | 9

742.67 МБ

В этой теме нет новых непрочитанных сообщений. Последнее королевство / The Last Kingdom [S01] (Энтони Бирн, Бен Чанан, Питер Хор) [2015, Боевик, Драма, Исторический, WEB-DL 1080p | NewStudio]

Dracon

210 | 263

19.31 ГБ

В этой теме нет новых непрочитанных сообщений. Последнее королевство / The Last Kingdom [S01] (Энтони Бирн, Бен Чанан, Питер Хор) [2015, Боевик, Драма, Исторический, WEB-DL 720p | AlexFilm]

Nickolas3435

126 | 150

15.72 ГБ

В этой теме нет новых непрочитанных сообщений. Последнее королевство / The Last Kingdom [01х01-06 из 08] (Энтони Бирн, Бен Чанан, Питер Хор) [2015, Боевик, Драма, Исторический, WEB-DL 720p | NewStudio]

Dracon

80 | 429

11.77 ГБ

В этой теме нет новых непрочитанных сообщений. Последнее королевство / The Last Kingdom [S01] (Энтони Бирн и Бен Чанан) [2015, История, боевик, драма, HDTVRip | Victory-Films]

Dracon

813 | 674

4.89 ГБ

В этой теме нет новых непрочитанных сообщений. Последнее королевство / The Last Kingdom [01x01-08 из 08] (Энтони Бирн и Бен Чанан) [2015, История, боевик, драма, HDTVRip 720p | Victory-Films]

Dracon

16 | 28

10.61 ГБ

В этой теме нет новых непрочитанных сообщений. Королевство / Kingdom [S01] [Драма, 2014] HDTVRip [NewStudio]

Dracon

641 | 164

5.66 ГБ


Начать новую тему Ответить на тему  [ 1 сообщение ] 




Для Мосгорсуда, Роскомнадзора и рекламодателей:: mosgorsud-torrent[собачка]yandex.ru