Торрент файл
скачать торрент магнет ссылка Добавлен: 16 апр 2011, 21:11
Размер: 2.17 ГБ
Сидеров: 45
Личеров: 8
Автор

СообщениеДобавлено: 16 апр 2011, 21:11 

Не в сети
Супермодератор
Аватара пользователя
Дата регистрации:
22 май 2010, 11:03
Возраст: 31
Спасибо: 7509 / 13
Сообщения: 49940
Никогда не сдавайся / Never Back Down


Перевод: Профессиональный (полное дублирование), cубтитры: отсутствуют
Формат: HDRip-AVC, MKV, H.264, AC3
Страна: США
Режиссер: Джефф Уадлоу
Жанр: боевик, драма, спорт
Продолжительность: 01:53:25
Год выпуска: 2008
В ролях: Шон Фэрис, Эмбер Хёрд, Кэм Жиганде

Описание: Джейк Тайлер вместе со всей своей семьей переезжает в Орландо, чтобы поддержать стремление младшего брата добиться успехов в профессиональной теннисной карьере. Джейк, который в родном городе был звёздой футбольной команды, на новом месте превращается в изгоя. Пытаясь как-то адаптироваться в новом обществе, Джейк принимает приглашение очаровательной одноклассницы Байи на вечеринку. Там он вопреки своим желаниям ввязывается в драку с местным задирой Райаном, в результате которой оказывается побитым и униженным.
После боя один из одноклассников Джейка рассказывает ему о спорте, в котором смешались многочисленные виды боевых искусств, известные человечеству, и позже знакомит его с тренером Жаном Рокуа. Рокуа становится наставником Джейка, но при одном условии — никогда не использовать силу в своих личных целях…




Рейтинг MPAA: PG-13

Видео: 1280х532 (2,40:1), 23,976 fps, V_MPEG4/ISO/AVC 2400 kbps avg, 0.147bit/pixel
Аудио: 48 kHz, AC3 Dolby Digital, 3/2 (L,C,R,l,r) + LFE ch, 384 kbps avg


Общее
Уникальный идентификатор: 188646496549776648445292671840095626004 (0x8DEBFE608F7ADEB0B52EEE67F67CE314)
Полное имя: D:\Никогда не сдавайся\Никогда не сдавайся.mkv
Формат: Matroska
Размер файла: 2,17 Гбайт
Продолжительность: 1 ч. 53 м.
Общий поток: 2739 Кбит/сек
Дата кодирования: UTC 2011-01-21 21:47:46
Программа кодирования: mkvmerge v2.4.0 ('Fumbling Towards Ecstasy') built on Oct 11 2008 20:13:15
Библиотека кодирования: libebml v0.7.7 + libmatroska v0.8.1

Видео
Идентификатор: 1
Формат: AVC
Формат/Информация: Advanced Video Codec
Профиль формата:
Параметр CABAC формата: Нет
Параметр ReFrames формата: 1 кадр
Идентификатор кодека: V_MPEG4/ISO/AVC
Продолжительность: 1 ч. 53 м.
Битрейт: 2400 Кбит/сек
Ширина: 1280 пикс.
Высота: 532 пикс.
Соотношение сторон: 2,40:1
Частота кадров: 23,976 кадр/сек
Цветовое пространство: YUV
Подвыборка цветности: 4:2:0
Битовая глубина: 8 бит
Тип развёртки: Прогрессивная
Бит/(Пиксели*Кадры): 0.147
Размер потока: 1,82 Гбайт (84%)
Библиотека кодирования: x264 core 80 r1378+57 6f6b50a
Настройки программы: cabac=0 / ref=1 / deblock=1:0:0 / analyse=0x3:0x113 / me=hex / subme=7 / psy=1 / psy_rd=1.0:0.0 / mixed_ref=0 / me_range=16 / chroma_me=1 / trellis=0 / 8x8dct=1 / cqm=0 / deadzone=21,11 / fast_pskip=1 / chroma_qp_offset=-2 / threads=3 / sliced_threads=0 / nr=0 / decimate=1 / mbaff=0 / constrained_intra=0 / bframes=0 / wpredp=2 / keyint=250 / keyint_min=25 / scenecut=40 / rc_lookahead=40 / rc=abr / mbtree=1 / bitrate=2400 / ratetol=1.0 / qcomp=0.60 / qpmin=10 / qpmax=51 / qpstep=4 / ip_ratio=1.40 / aq=1:1.00

Аудио
Идентификатор: 2
Формат: AC-3
Формат/Информация: Audio Coding 3
Расширение режима: CM (complete main)
Идентификатор кодека: A_AC3
Продолжительность: 1 ч. 53 м.
Вид битрейта: Постоянный
Битрейт: 384 Кбит/сек
Канал(ы): 6 канала(ов)
Расположение каналов: Front: L C R, Side: L R, LFE
Частота: 48,0 КГц
Битовая глубина: 16 бит
Метод сжатия: С потерями
Размер потока: 312 Мбайт (14%)












реклама партнёра


Вернуться к началу
 Профиль Отправить личное сообщение  
 
   Похожие торренты   Автор   Торрент   Размер 
В этой теме нет новых непрочитанных сообщений. Никогда не сдавайся 2 / Never Back Down 2 [Боевик, 2011] WEB-DL 720p, Mvo [Лицензия]

salma3

142 | 10

3.48 ГБ

В этой теме нет новых непрочитанных сообщений. Никогда не сдавайся 3 / Never Back Down: No Surrender [боевик, 2016] DVDRip, Dvo

salma3

1351 | 39

1.37 ГБ

В этой теме нет новых непрочитанных сообщений. Никогда не сдавайся 3 / Never Back Down: No Surrender [боевик, 2016] WEB-DLRip-AVC, Mvo [iTunes]

salma3

502 | 92

1.46 ГБ

В этой теме нет новых непрочитанных сообщений. Никогда не сдавайся 3 / Never Back Down: No Surrender [боевик, 2016] WEB-DL 1080p, Mvo [iTunes]

salma3

870 | 103

4.1 ГБ

В этой теме нет новых непрочитанных сообщений. Никогда не сдавайся 3 / Never Back Down: No Surrender [боевик, 2016] WEB-DL 720p, Mvo [iTunes]

salma3

1170 | 120

3.14 ГБ

В этой теме нет новых непрочитанных сообщений. За закатом расcвет / Away and Back (Джефф Блекнер) [Семейный, комедия, драма, 2015] WEB-DL 1080р, Mvo [iTunes]

Dracon

138 | 8

3.83 ГБ

В этой теме нет новых непрочитанных сообщений. За закатом расcвет / Away and Back (Джефф Блекнер) [Семейный, комедия, драма, 2015] WEB-DLRiр, Mvo [iTunes]

Dracon

562 | 19

1.46 ГБ


Начать новую тему Ответить на тему  [ 1 сообщение ] 




Для Мосгорсуда, Роскомнадзора и рекламодателей:: mosgorsud-torrent[собачка]yandex.ru