Торрент файл
скачать торрент магнет ссылка Добавлен: 16 апр 2011, 21:09
Размер: 1.76 ГБ
Сидеров: 51
Личеров: 18
Автор

СообщениеДобавлено: 16 апр 2011, 21:09 

Не в сети
Супермодератор
Аватара пользователя
Дата регистрации:
22 май 2010, 11:03
Возраст: 31
Спасибо: 7524 / 13
Сообщения: 49940
Большой выстрел / The Big Bang




Перевод: Любительский (двухголосый закадровый), cубтитры: отсутствуют
Формат: HDRip-AVC, MKV, AVC, AC3
Страна: США

Режиссер: Тони Крантц
Жанр: боевик, триллер, детектив
Продолжительность: 01:36:57
Год выпуска: 2011

В ролях: Сиенна Гиллори, Отем Ризер, Антонио Бандерас, Сэм Эллиотт, Уильям Фихтнер, Джеймс Ван Дер Бик, Томас Кречманн, Ребекка Мэдер, Джимми Симпсон, Снуп Догг

Описание: Частного детектива нанимают, чтобы найти пропавшую стриптизершу. Простое дело становится запутанным, когда каждый, кому он задавал вопросы, умирает




Видео: 720х416@1024x416 (2.35:1), 23.976 fps, х264, ~1699 kbps, 0.221 bit/pixel
Аудио: #1: Русский: 48 kHz, AC3 Dolby Digital, 3/2 (L,C,R,l,r) + LFE ch, ~448.00 kbps avg [Любительский (двухголосый закадровый)]
Аудио: #2: Английский: 48 kHz, AC3 Dolby Digital, 3/2 (L,C,R,l,r) + LFE ch, ~448.00 kbps avg [Oригинал]

General
Complete name: G:\Мои релизы\Все релизы 9\Bolshoy_vistrel_[tfile.ru]\Bolshoy_vistrel_[tfile.ru].mkv
Format: Matroska
File size: 1.46 GiB
Duration: 1h 36mn
Overall bit rate: 2 149 Kbps
Encoded date: UTC 2011-02-01 06:12:04
Writing application: mkvmerge v4.4.0 ('Die Wiederkehr') сборка от Nov7 2010 22:17:07
Writing library: libebml v1.0.0 + libmatroska v1.0.0

Video
ID: 1
Format: AVC
Format/Info: Advanced Video Codec
Format profile:
Format settings, CABAC: Yes
Format settings, ReFrames: 10 frames
Muxing mode: Container profile=Unknown@3.1
Codec ID: V_MPEG4/ISO/AVC
Duration: 1h 36mn
Bit rate: 1 658 Kbps
Nominal bit rate: 1 699 Kbps
Width: 720 pixels
Height: 416 pixels
Display aspect ratio: 2.35
Frame rate: 25.000 fps
Resolution: 24 bits
Colorimetry: 4:2:0
Scan type: Progressive
Bits/(Pixel*Frame): 0.221
Stream size: 1.12 GiB (77%)
Title: Bolshoy vistrel.chopper887
Writing library: x264 core 112 r1867 22bfd31
Encoding settings: cabac=1 / ref=10 / deblock=1:-2:-1 / analyse=0x3:0x133 / me=umh / subme=9 / psy=1 / psy_rd=1.00:0.10 / mixed_ref=1 / me_range=32 / chroma_me=0 / trellis=2 / 8x8dct=1 / cqm=0 / deadzone=21,11 / fast_pskip=0 / chroma_qp_offset=-3 / threads=3 / sliced_threads=0 / nr=0 / decimate=1 / interlaced=0 / constrained_intra=0 / bframes=10 / b_pyramid=2 / b_adapt=2 / b_bias=0 / direct=3 / weightb=1 / open_gop=0 / weightp=2 / keyint=250 / keyint_min=25 / scenecut=40 / intra_refresh=0 / rc_lookahead=80 / rc=2pass / mbtree=1 / bitrate=1699 / ratetol=1.0 / qcomp=0.70 / qpmin=10 / qpmax=51 / qpstep=4 / cplxblur=20.0 / qblur=0.5 / ip_ratio=1.40 / aq=1:1.00

Audio
ID: 2
Format: AC-3
Format/Info: Audio Coding 3
Codec ID: A_AC3
Duration: 1h 36mn
Bit rate mode: Constant
Bit rate: 448 Kbps
Channel(s): 6 channels
Channel positions: Front: L C R, Surround: L R, LFE
Sampling rate: 48.0 KHz
Stream size: 311 MiB (21%)
Title: Двухголоска





















реклама партнёра


Вернуться к началу
 Профиль Отправить личное сообщение  
 
   Похожие торренты   Автор   Торрент   Размер 
В этой теме нет новых непрочитанных сообщений. Выстрел / Dishkiyaoon [боевик, триллер, 2014] HDRip, Mvo+Sub

salma3

15 | 7

2.16 ГБ

В этой теме нет новых непрочитанных сообщений. Пиф-паф / Bang Bang [боевик, мелодрама, комедия, 2014] HDRip, Mvo

salma3

535 | 20

2.16 ГБ

В этой теме нет новых непрочитанных сообщений. Опережая выстрел [1-8 из 8] [Боевик, криминал, детектив,2011] DVDRip

iopuk60

0 | 10

4.34 ГБ

В этой теме нет новых непрочитанных сообщений. Один выстрел  / One Shot (Джон Лойд) [Триллер, 2014] HDRip, avo

Dracon

4 | 3

1.37 ГБ

В этой теме нет новых непрочитанных сообщений. Пиф-паф / Bang Bang [боевик, мелодрама, комедия, 2014] BDRip 720p, Mvo

salma3

46 | 29

6.84 ГБ

В этой теме нет новых непрочитанных сообщений. Рыцарь дня / Пиф-паф / Bang Bang [боевик, мелодрама, комедия, 2014] DVDRip, Mvo+Sub

salma3

47 | 4

2.19 ГБ

В этой теме нет новых непрочитанных сообщений. Пиф-паф / Bang Bang [Боевик, мелодрама, комедия, 2014] DVDRip, Dvo+Sub

salma3

67 | 6

1.65 ГБ


Начать новую тему Ответить на тему  [ 1 сообщение ] 




Для Мосгорсуда, Роскомнадзора и рекламодателей:: mosgorsud-torrent[собачка]yandex.ru